  0
SECTION
  2
HEADER
  9
$ACADVER
  1
AC1024
  9
$ACADMAINTVER
 70
   226
  9
$DWGCODEPAGE
  3
ANSI_1252
  9
$LASTSAVEDBY
  1
raphaelmanzolillo
  9
$INSBASE
 10
0.0
 20
0.0
 30
0.0
  9
$EXTMIN
 10
3220.119798339236
 20
-130.929
 30
0.0
  9
$EXTMAX
 10
4065.529763650487
 20
410.2266652830976
 30
2999.738826889333
  9
$LIMMIN
 10
0.0
 20
0.0
  9
$LIMMAX
 10
420.0
 20
297.0
  9
$ORTHOMODE
 70
     0
  9
$REGENMODE
 70
     1
  9
$FILLMODE
 70
     1
  9
$QTEXTMODE
 70
     0
  9
$MIRRTEXT
 70
     0
  9
$LTSCALE
 40
1.0
  9
$ATTMODE
 70
     1
  9
$TEXTSIZE
 40
2.5
  9
$TRACEWID
 40
1.0
  9
$TEXTSTYLE
  7
STANDARD
  9
$CLAYER
  8
梓蛁
  9
$CELTYPE
  6
ByLayer
  9
$CECOLOR
 62
   256
  9
$CELTSCALE
 40
1.0
  9
$DISPSILH
 70
     0
  9
$DIMSCALE
 40
1.0
  9
$DIMASZ
 40
16.0
  9
$DIMEXO
 40
22.0
  9
$DIMDLI
 40
0.38
  9
$DIMRND
 40
0.0
  9
$DIMDLE
 40
0.0
  9
$DIMEXE
 40
8.0
  9
$DIMTP
 40
0.0
  9
$DIMTM
 40
0.0
  9
$DIMTXT
 40
16.0
  9
$DIMCEN
 40
0.09
  9
$DIMTSZ
 40
0.0
  9
$DIMTOL
 70
     0
  9
$DIMLIM
 70
     0
  9
$DIMTIH
 70
     0
  9
$DIMTOH
 70
     0
  9
$DIMSE1
 70
     0
  9
$DIMSE2
 70
     0
  9
$DIMTAD
 70
     0
  9
$DIMZIN
 70
     8
  9
$DIMBLK
  1

  9
$DIMASO
 70
     1
  9
$DIMSHO
 70
     1
  9
$DIMPOST
  1

  9
$DIMAPOST
  1
"
  9
$DIMALT
 70
     0
  9
$DIMALTD
 70
     1
  9
$DIMALTF
 40
0.03937
  9
$DIMLFAC
 40
1.0
  9
$DIMTOFL
 70
     1
  9
$DIMTVP
 40
0.0
  9
$DIMTIX
 70
     0
  9
$DIMSOXD
 70
     0
  9
$DIMSAH
 70
     0
  9
$DIMBLK1
  1

  9
$DIMBLK2
  1

  9
$DIMSTYLE
  2
萵掛STANDARD
  9
$DIMCLRD
 70
   256
  9
$DIMCLRE
 70
   256
  9
$DIMCLRT
 70
   256
  9
$DIMTFAC
 40
1.0
  9
$DIMGAP
 40
5.0
  9
$DIMJUST
 70
     0
  9
$DIMSD1
 70
     0
  9
$DIMSD2
 70
     0
  9
$DIMTOLJ
 70
     1
  9
$DIMTZIN
 70
     0
  9
$DIMALTZ
 70
     0
  9
$DIMALTTZ
 70
     0
  9
$DIMUPT
 70
     0
  9
$DIMDEC
 70
     4
  9
$DIMTDEC
 70
     4
  9
$DIMALTU
 70
     2
  9
$DIMALTTD
 70
     2
  9
$DIMTXSTY
  7
STANDARD
  9
$DIMAUNIT
 70
     0
  9
$DIMADEC
 70
     0
  9
$DIMALTRND
 40
0.0
  9
$DIMAZIN
 70
     0
  9
$DIMDSEP
 70
    46
  9
$DIMATFIT
 70
     3
  9
$DIMFRAC
 70
     0
  9
$DIMLDRBLK
  1

  9
$DIMLUNIT
 70
     2
  9
$DIMLWD
 70
    -2
  9
$DIMLWE
 70
    -2
  9
$DIMTMOVE
 70
     0
  9
$DIMFXL
 40
0.5
  9
$DIMFXLON
 70
     1
  9
$DIMJOGANG
 40
1.570796326794896
  9
$DIMTFILL
 70
     0
  9
$DIMTFILLCLR
 70
     0
  9
$DIMARCSYM
 70
     0
  9
$DIMLTYPE
  6
ByLayer
  9
$DIMLTEX1
  6
ACAD_ISO03W100
  9
$DIMLTEX2
  6
ACAD_ISO03W100
  9
$DIMTXTDIRECTION
 70
     0
  9
$LUNITS
 70
     2
  9
$LUPREC
 70
     4
  9
$SKETCHINC
 40
1.0
  9
$FILLETRAD
 40
0.0
  9
$AUNITS
 70
     0
  9
$AUPREC
 70
     0
  9
$MENU
  1
.
  9
$ELEVATION
 40
0.0
  9
$PELEVATION
 40
0.0
  9
$THICKNESS
 40
0.0
  9
$LIMCHECK
 70
     0
  9
$CHAMFERA
 40
0.0
  9
$CHAMFERB
 40
0.0
  9
$CHAMFERC
 40
0.0
  9
$CHAMFERD
 40
0.0
  9
$SKPOLY
 70
     0
  9
$TDCREATE
 40
2455301.445069444
  9
$TDUCREATE
 40
2455301.736747141
  9
$TDUPDATE
 40
2459601.451701389
  9
$TDUUPDATE
 40
2459601.785034722
  9
$TDINDWG
 40
0.0272389120
  9
$TDUSRTIMER
 40
0.0272378935
  9
$USRTIMER
 70
     1
  9
$ANGBASE
 50
0.0
  9
$ANGDIR
 70
     0
  9
$PDMODE
 70
     0
  9
$PDSIZE
 40
0.0
  9
$PLINEWID
 40
0.0
  9
$SPLFRAME
 70
     0
  9
$SPLINETYPE
 70
     6
  9
$SPLINESEGS
 70
     8
  9
$HANDSEED
  5
A2B
  9
$SURFTAB1
 70
     6
  9
$SURFTAB2
 70
     6
  9
$SURFTYPE
 70
     6
  9
$SURFU
 70
     6
  9
$SURFV
 70
     6
  9
$UCSBASE
  2

  9
$UCSNAME
  2

  9
$UCSORG
 10
0.0
 20
0.0
 30
0.0
  9
$UCSXDIR
 10
1.0
 20
0.0
 30
0.0
  9
$UCSYDIR
 10
0.0
 20
1.0
 30
0.0
  9
$UCSORTHOREF
  2

  9
$UCSORTHOVIEW
 70
     0
  9
$UCSORGTOP
 10
0.0
 20
0.0
 30
0.0
  9
$UCSORGBOTTOM
 10
0.0
 20
0.0
 30
0.0
  9
$UCSORGLEFT
 10
0.0
 20
0.0
 30
0.0
  9
$UCSORGRIGHT
 10
0.0
 20
0.0
 30
0.0
  9
$UCSORGFRONT
 10
0.0
 20
0.0
 30
0.0
  9
$UCSORGBACK
 10
0.0
 20
0.0
 30
0.0
  9
$PUCSBASE
  2

  9
$PUCSNAME
  2

  9
$PUCSORG
 10
0.0
 20
0.0
 30
0.0
  9
$PUCSXDIR
 10
1.0
 20
0.0
 30
0.0
  9
$PUCSYDIR
 10
0.0
 20
1.0
 30
0.0
  9
$PUCSORTHOREF
  2

  9
$PUCSORTHOVIEW
 70
     0
  9
$PUCSORGTOP
 10
0.0
 20
0.0
 30
0.0
  9
$PUCSORGBOTTOM
 10
0.0
 20
0.0
 30
0.0
  9
$PUCSORGLEFT
 10
0.0
 20
0.0
 30
0.0
  9
$PUCSORGRIGHT
 10
0.0
 20
0.0
 30
0.0
  9
$PUCSORGFRONT
 10
0.0
 20
0.0
 30
0.0
  9
$PUCSORGBACK
 10
0.0
 20
0.0
 30
0.0
  9
$USERI1
 70
     0
  9
$USERI2
 70
     0
  9
$USERI3
 70
     0
  9
$USERI4
 70
     0
  9
$USERI5
 70
     0
  9
$USERR1
 40
0.0
  9
$USERR2
 40
0.0
  9
$USERR3
 40
0.0
  9
$USERR4
 40
0.0
  9
$USERR5
 40
2.5
  9
$WORLDVIEW
 70
     1
  9
$SHADEDGE
 70
     3
  9
$SHADEDIF
 70
    70
  9
$TILEMODE
 70
     1
  9
$MAXACTVP
 70
    64
  9
$PINSBASE
 10
0.0
 20
0.0
 30
0.0
  9
$PLIMCHECK
 70
     0
  9
$PEXTMIN
 10
1.000000000000000E+20
 20
1.000000000000000E+20
 30
1.000000000000000E+20
  9
$PEXTMAX
 10
-1.000000000000000E+20
 20
-1.000000000000000E+20
 30
-1.000000000000000E+20
  9
$PLIMMIN
 10
0.0
 20
0.0
  9
$PLIMMAX
 10
420.0
 20
297.0
  9
$UNITMODE
 70
     0
  9
$VISRETAIN
 70
     1
  9
$PLINEGEN
 70
     0
  9
$PSLTSCALE
 70
     1
  9
$TREEDEPTH
 70
  3020
  9
$CMLSTYLE
  2
Standard
  9
$CMLJUST
 70
     0
  9
$CMLSCALE
 40
1.0
  9
$PROXYGRAPHICS
 70
     1
  9
$MEASUREMENT
 70
     0
  9
$CELWEIGHT
370
    -1
  9
$ENDCAPS
280
     0
  9
$JOINSTYLE
280
     0
  9
$LWDISPLAY
290
     0
  9
$INSUNITS
 70
     0
  9
$HYPERLINKBASE
  1

  9
$STYLESHEET
  1

  9
$XEDIT
290
     1
  9
$CEPSNTYPE
380
     0
  9
$PSTYLEMODE
290
     1
  9
$FINGERPRINTGUID
  2
{09E39CB5-95DE-411F-8289-7F1C85685D8F}
  9
$VERSIONGUID
  2
{C014EA6A-DF59-1D4A-A8C7-B1302A976FB9}
  9
$EXTNAMES
290
     1
  9
$PSVPSCALE
 40
0.0
  9
$OLESTARTUP
290
     0
  9
$SORTENTS
280
   127
  9
$INDEXCTL
280
     0
  9
$HIDETEXT
280
     0
  9
$XCLIPFRAME
280
     2
  9
$HALOGAP
280
     0
  9
$OBSCOLOR
 70
   257
  9
$OBSLTYPE
280
     0
  9
$INTERSECTIONDISPLAY
280
     0
  9
$INTERSECTIONCOLOR
 70
   257
  9
$DIMASSOC
280
     1
  9
$PROJECTNAME
  1

  9
$CAMERADISPLAY
290
     0
  9
$LENSLENGTH
 40
50.0
  9
$CAMERAHEIGHT
 40
0.0
  9
$STEPSPERSEC
 40
2.0
  9
$STEPSIZE
 40
6.0
  9
$3DDWFPREC
 40
2.0
  9
$PSOLWIDTH
 40
0.25
  9
$PSOLHEIGHT
 40
4.0
  9
$LOFTANG1
 40
1.570796326794896
  9
$LOFTANG2
 40
1.570796326794896
  9
$LOFTMAG1
 40
0.0
  9
$LOFTMAG2
 40
0.0
  9
$LOFTPARAM
 70
     7
  9
$LOFTNORMALS
280
     1
  9
$LATITUDE
 40
37.795
  9
$LONGITUDE
 40
-122.394
  9
$NORTHDIRECTION
 40
0.0
  9
$TIMEZONE
 70
 -8000
  9
$LIGHTGLYPHDISPLAY
280
     1
  9
$TILEMODELIGHTSYNCH
280
     1
  9
$CMATERIAL
347
7ED
  9
$SOLIDHIST
280
     0
  9
$SHOWHIST
280
     1
  9
$DWFFRAME
280
     2
  9
$DGNFRAME
280
     0
  9
$REALWORLDSCALE
290
     1
  9
$INTERFERECOLOR
 62
     1
  9
$INTERFEREOBJVS
345
80F
  9
$INTERFEREVPVS
346
80C
  9
$CSHADOW
280
     0
  9
$SHADOWPLANELOCATION
 40
0.0
  0
ENDSEC
  0
SECTION
  2
CLASSES
  0
CLASS
  1
ACDBDICTIONARYWDFLT
  2
AcDbDictionaryWithDefault
  3
ObjectDBX Classes
 90
        0
 91
        1
280
     0
281
     0
  0
CLASS
  1
MATERIAL
  2
AcDbMaterial
  3
ObjectDBX Classes
 90
     1153
 91
        3
280
     0
281
     0
  0
CLASS
  1
VISUALSTYLE
  2
AcDbVisualStyle
  3
ObjectDBX Classes
 90
     4095
 91
       25
280
     0
281
     0
  0
CLASS
  1
SCALE
  2
AcDbScale
  3
ObjectDBX Classes
 90
     1153
 91
       17
280
     0
281
     0
  0
CLASS
  1
TABLESTYLE
  2
AcDbTableStyle
  3
ObjectDBX Classes
 90
     4095
 91
        1
280
     0
281
     0
  0
CLASS
  1
MLEADERSTYLE
  2
AcDbMLeaderStyle
  3
ACDB_MLEADERSTYLE_CLASS
 90
     4095
 91
        1
280
     0
281
     0
  0
CLASS
  1
EXACXREFPANELOBJECT
  2
ExAcXREFPanelObject
  3
EXAC_ESW
 90
     1025
 91
        0
280
     0
281
     0
  0
CLASS
  1
NPOCOLLECTION
  2
AcDbImpNonPersistentObjectsCollection
  3
ObjectDBX Classes
 90
     1153
 91
        0
280
     0
281
     0
  0
CLASS
  1
ACAD_EVALUATION_GRAPH
  2
AcDbEvalGraph
  3
ObjectDBX Classes
 90
     1153
 91
        1
280
     0
281
     0
  0
CLASS
  1
ACDB_DYNAMICBLOCKPURGEPREVENTER_VERSION
  2
AcDbDynamicBlockPurgePreventer
  3
ObjectDBX Classes
 90
     1153
 91
        1
280
     0
281
     0
  0
CLASS
  1
DICTIONARYVAR
  2
AcDbDictionaryVar
  3
ObjectDBX Classes
 90
        0
 91
       12
280
     0
281
     0
  0
CLASS
  1
CELLSTYLEMAP
  2
AcDbCellStyleMap
  3
ObjectDBX Classes
 90
     1152
 91
        2
280
     0
281
     0
  0
CLASS
  1
ACDBSECTIONVIEWSTYLE
  2
AcDbSectionViewStyle
  3
ObjectDBX Classes
 90
     1025
 91
        1
280
     0
281
     0
  0
CLASS
  1
ACDBDETAILVIEWSTYLE
  2
AcDbDetailViewStyle
  3
ObjectDBX Classes
 90
     1025
 91
        1
280
     0
281
     0
  0
CLASS
  1
SORTENTSTABLE
  2
AcDbSortentsTable
  3
ObjectDBX Classes
 90
        0
 91
        0
280
     0
281
     0
  0
ENDSEC
  0
SECTION
  2
TABLES
  0
TABLE
  2
VPORT
  5
7E4
330
0
100
AcDbSymbolTable
 70
     1
  0
VPORT
  5
84C
330
7E4
100
AcDbSymbolTableRecord
100
AcDbViewportTableRecord
  2
*ACTIVE
 70
     0
 10
0.0
 20
0.0
 11
1.0
 21
1.0
 12
3315.899190962338
 22
145.6891758392419
 13
0.0
 23
0.0
 14
10.0
 24
10.0
 15
10.0
 25
10.0
 16
0.0
 26
0.0
 36
1.0
 17
0.0
 27
0.0
 37
0.0
 40
308.6557219763158
 41
0.6874265569917744
 42
50.0
 43
0.0
 44
0.0
 50
0.0
 51
0.0
 71
     0
 72
  1000
 73
     1
 74
     3
 75
     0
 76
     0
 77
     0
 78
     0
281
     0
 65
     1
110
0.0
120
0.0
130
0.0
111
1.0
121
0.0
131
0.0
112
0.0
122
1.0
132
0.0
 79
     0
146
0.0
348
80B
 60
     3
 61
     5
292
     1
282
     1
141
0.0
142
0.0
 63
   250
421
  3355443
1001
ACAD_NAV_VCDISPLAY
1070
     3
  0
ENDTAB
  0
TABLE
  2
LTYPE
  5
7E1
330
0
100
AcDbSymbolTable
 70
     3
  0
LTYPE
  5
836
330
7E1
100
AcDbSymbolTableRecord
100
AcDbLinetypeTableRecord
  2
ByBlock
 70
     0
  3

 72
    65
 73
     0
 40
0.0
  0
LTYPE
  5
837
330
7E1
100
AcDbSymbolTableRecord
100
AcDbLinetypeTableRecord
  2
ByLayer
 70
     0
  3

 72
    65
 73
     0
 40
0.0
  0
LTYPE
  5
838
330
7E1
100
AcDbSymbolTableRecord
100
AcDbLinetypeTableRecord
  2
CONTINUOUS
 70
     0
  3
Solid line
 72
    65
 73
     0
 40
0.0
  0
LTYPE
  5
8CF
330
7E1
100
AcDbSymbolTableRecord
100
AcDbLinetypeTableRecord
  2
ACAD_ISO03W100
 70
     0
  3
ISO dash space __    __    __    __    __    __
 72
    65
 73
     2
 40
30.0
 49
12.0
 74
     0
 49
-18.0
 74
     0
  0
ENDTAB
  0
TABLE
  2
LAYER
  5
7DE
102
{ACAD_XDICTIONARY
360
8DB
102
}
330
0
100
AcDbSymbolTable
 70
     5
  0
LAYER
  5
830
102
{ACAD_XDICTIONARY
360
8EB
102
}
330
7DE
100
AcDbSymbolTableRecord
100
AcDbLayerTableRecord
  2
0
 70
     0
 62
     7
  6
CONTINUOUS
370
    -3
390
7EB
347
7FD
  0
LAYER
  5
84B
102
{ACAD_XDICTIONARY
360
8ED
102
}
330
7DE
100
AcDbSymbolTableRecord
100
AcDbLayerTableRecord
  2
梓蛁
 70
     0
 62
    80
  6
CONTINUOUS
370
    -3
390
7EB
347
7FD
  0
LAYER
  5
84D
330
7DE
100
AcDbSymbolTableRecord
100
AcDbLayerTableRecord
  2
DEFPOINTS
 70
     0
 62
     7
  6
CONTINUOUS
290
     0
370
    -3
390
7EB
347
7FD
  0
LAYER
  5
84E
102
{ACAD_XDICTIONARY
360
8EF
102
}
330
7DE
100
AcDbSymbolTableRecord
100
AcDbLayerTableRecord
  2
梓蛁盄
 70
     0
 62
     3
  6
CONTINUOUS
370
    -3
390
7EB
347
7FD
  0
LAYER
  5
96A
102
{ACAD_XDICTIONARY
360
96B
102
}
330
7DE
100
AcDbSymbolTableRecord
100
AcDbLayerTableRecord
  2
标注线
 70
     0
 62
     3
  6
CONTINUOUS
370
     9
390
7EB
347
7FD
  0
ENDTAB
  0
TABLE
  2
STYLE
  5
7DF
330
0
100
AcDbSymbolTable
 70
     2
  0
STYLE
  5
831
330
7DF
100
AcDbSymbolTableRecord
100
AcDbTextStyleTableRecord
  2
STANDARD
 70
     0
 40
0.0
 41
1.0
 50
0.0
 71
     0
 42
2.5
  3
txt
  4

  0
STYLE
  5
835
330
7DF
100
AcDbSymbolTableRecord
100
AcDbTextStyleTableRecord
  2
Annotative
 70
     0
 40
0.0
 41
1.0
 50
0.0
 71
     0
 42
0.2
  3
txt
  4

1001
AcadAnnotative
1000
AnnotativeData
1002
{
1070
     1
1070
     1
1002
}
  0
ENDTAB
  0
TABLE
  2
VIEW
  5
7E2
330
0
100
AcDbSymbolTable
 70
     1
  0
ENDTAB
  0
TABLE
  2
UCS
  5
7E3
330
0
100
AcDbSymbolTable
 70
     0
  0
ENDTAB
  0
TABLE
  2
APPID
  5
7E5
330
0
100
AcDbSymbolTable
 70
    22
  0
APPID
  5
832
330
7E5
100
AcDbSymbolTableRecord
100
AcDbRegAppTableRecord
  2
ACAD
 70
     0
  0
APPID
  5
839
330
7E5
100
AcDbSymbolTableRecord
100
AcDbRegAppTableRecord
  2
AcadAnnotative
 70
     0
  0
APPID
  5
84F
330
7E5
100
AcDbSymbolTableRecord
100
AcDbRegAppTableRecord
  2
ACAECLAYERSTANDARD
 70
     0
  0
APPID
  5
850
330
7E5
100
AcDbSymbolTableRecord
100
AcDbRegAppTableRecord
  2
ACAD_DSTYLE_DIMEXT_LENGTH
 70
     0
  0
APPID
  5
851
330
7E5
100
AcDbSymbolTableRecord
100
AcDbRegAppTableRecord
  2
ACAD_DSTYLE_DIMEXT_ENABLED
 70
     0
  0
APPID
  5
852
330
7E5
100
AcDbSymbolTableRecord
100
AcDbRegAppTableRecord
  2
ACAD_DSTYLE_DIMJOGGED_JOGA
 70
     0
  0
APPID
  5
853
330
7E5
100
AcDbSymbolTableRecord
100
AcDbRegAppTableRecord
  2
ACAD_DSTYLE_DIMARC_LENGTH_
 70
     0
  0
APPID
  5
8D1
330
7E5
100
AcDbSymbolTableRecord
100
AcDbRegAppTableRecord
  2
ACAD_DSTYLE_DIMJAG
 70
     0
  0
APPID
  5
8D2
330
7E5
100
AcDbSymbolTableRecord
100
AcDbRegAppTableRecord
  2
ACAD_DSTYLE_DIMBREAK
 70
     0
  0
APPID
  5
8D3
330
7E5
100
AcDbSymbolTableRecord
100
AcDbRegAppTableRecord
  2
ACAD_DSTYLE_DIMTALN
 70
     0
  0
APPID
  5
8D4
330
7E5
100
AcDbSymbolTableRecord
100
AcDbRegAppTableRecord
  2
ACAD_PSEXT
 70
     0
  0
APPID
  5
8D5
330
7E5
100
AcDbSymbolTableRecord
100
AcDbRegAppTableRecord
  2
ACAD_DSTYLE_DIMJOGGED_JOGANGLE_SYMBOL
 70
     0
  0
APPID
  5
8D6
330
7E5
100
AcDbSymbolTableRecord
100
AcDbRegAppTableRecord
  2
ACAUTHENVIRON
 70
     0
  0
APPID
  5
8D7
330
7E5
100
AcDbSymbolTableRecord
100
AcDbRegAppTableRecord
  2
AcDbDynamicBlockTrueName
 70
     0
  0
APPID
  5
8D8
330
7E5
100
AcDbSymbolTableRecord
100
AcDbRegAppTableRecord
  2
AcDbDynamicBlockGUID
 70
     0
  0
APPID
  5
8D9
330
7E5
100
AcDbSymbolTableRecord
100
AcDbRegAppTableRecord
  2
AcadStringInfo
 70
     0
  0
APPID
  5
8E9
330
7E5
100
AcDbSymbolTableRecord
100
AcDbRegAppTableRecord
  2
ACAD_EXEMPT_FROM_CAD_STANDARDS
 70
     0
  0
APPID
  5
93A
330
7E5
100
AcDbSymbolTableRecord
100
AcDbRegAppTableRecord
  2
ACAD_MLEADERVER
 70
     0
  0
APPID
  5
941
330
7E5
100
AcDbSymbolTableRecord
100
AcDbRegAppTableRecord
  2
ACAD_DSTYLE_DIM_LINETYPE
 70
     0
  0
APPID
  5
942
330
7E5
100
AcDbSymbolTableRecord
100
AcDbRegAppTableRecord
  2
ACAD_DSTYLE_DIM_EXT1_LINETYPE
 70
     0
  0
APPID
  5
943
330
7E5
100
AcDbSymbolTableRecord
100
AcDbRegAppTableRecord
  2
ACAD_DSTYLE_DIM_EXT2_LINETYPE
 70
     0
  0
APPID
  5
96D
330
7E5
100
AcDbSymbolTableRecord
100
AcDbRegAppTableRecord
  2
ACAD_NAV_VCDISPLAY
 70
     0
  0
ENDTAB
  0
TABLE
  2
DIMSTYLE
  5
7E6
330
0
100
AcDbSymbolTable
 70
     6
100
AcDbDimStyleTable
 71
     0
  0
DIMSTYLE
105
833
102
{ACAD_REACTORS
330
496
330
79D
102
}
330
7E6
100
AcDbSymbolTableRecord
100
AcDbDimStyleTableRecord
  2
STANDARD
 70
     0
 41
20.0
 42
25.0
 44
8.0
 73
     0
 74
     0
 78
     8
140
20.0
147
5.0
172
     1
176
     3
177
     3
178
     3
274
     1
279
     2
284
     8
285
     8
286
     8
340
831
  0
DIMSTYLE
105
834
330
7E6
100
AcDbSymbolTableRecord
100
AcDbDimStyleTableRecord
  2
Annotative
 70
     0
340
831
1001
AcadAnnotative
1000
AnnotativeData
1002
{
1070
     1
1070
     1
1002
}
  0
DIMSTYLE
105
854
330
7E6
100
AcDbSymbolTableRecord
100
AcDbDimStyleTableRecord
  2
ISO-25
 70
     0
 41
2.5
 42
0.625
 43
3.75
 44
1.25
 73
     0
 74
     0
 77
     1
 78
     8
140
2.5
141
2.5
143
0.03937007874016
147
0.625
171
     3
172
     1
274
     1
279
     2
284
     8
285
     8
286
     8
340
831
  0
DIMSTYLE
105
855
330
7E6
100
AcDbSymbolTableRecord
100
AcDbDimStyleTableRecord
  2
萵掛STANDARD
 70
     0
  4
"
 41
16.0
 42
22.0
 44
8.0
 73
     0
 74
     0
 78
     8
140
16.0
143
0.03937
147
5.0
171
     1
172
     1
176
   256
177
   256
178
   256
274
     1
279
     2
284
     8
285
     8
286
     8
340
831
  0
DIMSTYLE
105
8D0
330
7E6
100
AcDbSymbolTableRecord
100
AcDbDimStyleTableRecord
  2
副本 ISO-25
 70
     0
  3
"
 41
0.5
 42
0.625
 43
0.5
 44
1.25
 49
0.5
 50
89.99999999999998
 73
     0
 74
     0
 77
     1
 78
     8
140
0.5
141
0.5
143
0.03937007874016
147
0.625
171
     3
172
     1
176
     1
177
     1
178
     1
271
     3
272
     3
274
     3
276
     2
277
     5
283
     0
284
     8
290
     1
340
831
345
837
346
8CF
347
8CF
1001
ACAD_DSTYLE_DIMBREAK
1070
   391
1040
3.75
1001
ACAD_DSTYLE_DIMJAG
1070
   388
1040
1.5
1001
ACAD_DSTYLE_DIMTALN
1070
   392
1070
     0
1001
AcadStringInfo
1000
MIFCodePage
1070
     5
1001
ACAD_DSTYLE_DIMJOGGED_JOGANGLE_SYMBOL
1070
   384
1040
1.570796326794896
  0
DIMSTYLE
105
96C
330
7E6
100
AcDbSymbolTableRecord
100
AcDbDimStyleTableRecord
  2
副本Standard
 70
     0
  4
"
 41
16.0
 42
22.0
 44
8.0
 73
     0
 74
     0
 78
     8
 79
     2
140
16.0
143
0.03937
147
5.0
171
     3
172
     1
176
   256
177
   256
178
   256
179
     1
271
     1
272
     1
273
     7
274
     3
278
    44
340
831
  0
ENDTAB
  0
TABLE
  2
BLOCK_RECORD
  5
7DD
330
0
100
AcDbSymbolTable
 70
    47
  0
BLOCK_RECORD
  5
847
330
7DD
100
AcDbSymbolTableRecord
100
AcDbBlockTableRecord
  2
*Model_Space
340
84A
 70
     0
280
     1
281
     0
  0
BLOCK_RECORD
  5
843
330
7DD
100
AcDbSymbolTableRecord
100
AcDbBlockTableRecord
  2
*Paper_Space
340
846
 70
     0
280
     1
281
     0
  0
BLOCK_RECORD
  5
857
330
7DD
100
AcDbSymbolTableRecord
100
AcDbBlockTableRecord
  2
$MODEL_SPACE
340
0
 70
     0
280
     1
281
     0
  0
BLOCK_RECORD
  5
859
330
7DD
100
AcDbSymbolTableRecord
100
AcDbBlockTableRecord
  2
$PAPER_SPACE
340
0
 70
     0
280
     1
281
     0
  0
BLOCK_RECORD
  5
85B
330
7DD
100
AcDbSymbolTableRecord
100
AcDbBlockTableRecord
  2
*U2
340
0
 70
     0
280
     1
281
     0
  0
BLOCK_RECORD
  5
85D
330
7DD
100
AcDbSymbolTableRecord
100
AcDbBlockTableRecord
  2
*U3
340
0
 70
     0
280
     1
281
     0
  0
BLOCK_RECORD
  5
85F
330
7DD
100
AcDbSymbolTableRecord
100
AcDbBlockTableRecord
  2
*U4
340
0
 70
     0
280
     1
281
     0
  0
BLOCK_RECORD
  5
861
330
7DD
100
AcDbSymbolTableRecord
100
AcDbBlockTableRecord
  2
*U5
340
0
 70
     0
280
     1
281
     0
  0
BLOCK_RECORD
  5
863
330
7DD
100
AcDbSymbolTableRecord
100
AcDbBlockTableRecord
  2
*U6
340
0
 70
     0
280
     1
281
     0
  0
BLOCK_RECORD
  5
865
330
7DD
100
AcDbSymbolTableRecord
100
AcDbBlockTableRecord
  2
*U7
340
0
 70
     0
280
     1
281
     0
  0
BLOCK_RECORD
  5
867
330
7DD
100
AcDbSymbolTableRecord
100
AcDbBlockTableRecord
  2
*U8
340
0
 70
     0
280
     1
281
     0
  0
BLOCK_RECORD
  5
869
330
7DD
100
AcDbSymbolTableRecord
100
AcDbBlockTableRecord
  2
*U9
340
0
 70
     0
280
     1
281
     0
  0
BLOCK_RECORD
  5
86B
330
7DD
100
AcDbSymbolTableRecord
100
AcDbBlockTableRecord
  2
*U10
340
0
 70
     0
280
     1
281
     0
  0
BLOCK_RECORD
  5
86D
330
7DD
100
AcDbSymbolTableRecord
100
AcDbBlockTableRecord
  2
*U11
340
0
 70
     0
280
     1
281
     0
  0
BLOCK_RECORD
  5
86F
330
7DD
100
AcDbSymbolTableRecord
100
AcDbBlockTableRecord
  2
*U12
340
0
 70
     0
280
     1
281
     0
  0
BLOCK_RECORD
  5
871
330
7DD
100
AcDbSymbolTableRecord
100
AcDbBlockTableRecord
  2
*U13
340
0
 70
     0
280
     1
281
     0
  0
BLOCK_RECORD
  5
873
330
7DD
100
AcDbSymbolTableRecord
100
AcDbBlockTableRecord
  2
*U14
340
0
 70
     0
280
     1
281
     0
  0
BLOCK_RECORD
  5
875
330
7DD
100
AcDbSymbolTableRecord
100
AcDbBlockTableRecord
  2
*U15
340
0
 70
     0
280
     1
281
     0
  0
BLOCK_RECORD
  5
877
330
7DD
100
AcDbSymbolTableRecord
100
AcDbBlockTableRecord
  2
*U16
340
0
 70
     0
280
     1
281
     0
  0
BLOCK_RECORD
  5
879
330
7DD
100
AcDbSymbolTableRecord
100
AcDbBlockTableRecord
  2
*U17
340
0
 70
     0
280
     1
281
     0
  0
BLOCK_RECORD
  5
87B
330
7DD
100
AcDbSymbolTableRecord
100
AcDbBlockTableRecord
  2
*U18
340
0
 70
     0
280
     1
281
     0
  0
BLOCK_RECORD
  5
87D
330
7DD
100
AcDbSymbolTableRecord
100
AcDbBlockTableRecord
  2
*U19
340
0
 70
     0
280
     1
281
     0
  0
BLOCK_RECORD
  5
87F
330
7DD
100
AcDbSymbolTableRecord
100
AcDbBlockTableRecord
  2
*U20
340
0
 70
     0
280
     1
281
     0
  0
BLOCK_RECORD
  5
881
330
7DD
100
AcDbSymbolTableRecord
100
AcDbBlockTableRecord
  2
*U21
340
0
 70
     0
280
     1
281
     0
  0
BLOCK_RECORD
  5
883
330
7DD
100
AcDbSymbolTableRecord
100
AcDbBlockTableRecord
  2
*U22
340
0
 70
     0
280
     1
281
     0
  0
BLOCK_RECORD
  5
885
330
7DD
100
AcDbSymbolTableRecord
100
AcDbBlockTableRecord
  2
*U23
340
0
 70
     0
280
     1
281
     0
  0
BLOCK_RECORD
  5
887
330
7DD
100
AcDbSymbolTableRecord
100
AcDbBlockTableRecord
  2
*U24
340
0
 70
     0
280
     1
281
     0
  0
BLOCK_RECORD
  5
889
330
7DD
100
AcDbSymbolTableRecord
100
AcDbBlockTableRecord
  2
*U25
340
0
 70
     0
280
     1
281
     0
  0
BLOCK_RECORD
  5
88B
330
7DD
100
AcDbSymbolTableRecord
100
AcDbBlockTableRecord
  2
*U26
340
0
 70
     0
280
     1
281
     0
  0
BLOCK_RECORD
  5
88D
330
7DD
100
AcDbSymbolTableRecord
100
AcDbBlockTableRecord
  2
*U27
340
0
 70
     0
280
     1
281
     0
  0
BLOCK_RECORD
  5
88F
330
7DD
100
AcDbSymbolTableRecord
100
AcDbBlockTableRecord
  2
*U28
340
0
 70
     0
280
     1
281
     0
  0
BLOCK_RECORD
  5
891
330
7DD
100
AcDbSymbolTableRecord
100
AcDbBlockTableRecord
  2
*U29
340
0
 70
     0
280
     1
281
     0
  0
BLOCK_RECORD
  5
893
330
7DD
100
AcDbSymbolTableRecord
100
AcDbBlockTableRecord
  2
*U30
340
0
 70
     0
280
     1
281
     0
  0
BLOCK_RECORD
  5
895
330
7DD
100
AcDbSymbolTableRecord
100
AcDbBlockTableRecord
  2
*U31
340
0
 70
     0
280
     1
281
     0
  0
BLOCK_RECORD
  5
897
330
7DD
100
AcDbSymbolTableRecord
100
AcDbBlockTableRecord
  2
*U32
340
0
 70
     0
280
     1
281
     0
  0
BLOCK_RECORD
  5
899
330
7DD
100
AcDbSymbolTableRecord
100
AcDbBlockTableRecord
  2
*U33
340
0
 70
     0
280
     1
281
     0
  0
BLOCK_RECORD
  5
89B
330
7DD
100
AcDbSymbolTableRecord
100
AcDbBlockTableRecord
  2
*U34
340
0
 70
     0
280
     1
281
     0
  0
BLOCK_RECORD
  5
89D
330
7DD
100
AcDbSymbolTableRecord
100
AcDbBlockTableRecord
  2
*U35
340
0
 70
     0
280
     1
281
     0
  0
BLOCK_RECORD
  5
89F
330
7DD
100
AcDbSymbolTableRecord
100
AcDbBlockTableRecord
  2
*U36
340
0
 70
     0
280
     1
281
     0
  0
BLOCK_RECORD
  5
8A1
330
7DD
100
AcDbSymbolTableRecord
100
AcDbBlockTableRecord
  2
*U37
340
0
 70
     0
280
     1
281
     0
  0
BLOCK_RECORD
  5
8A3
330
7DD
100
AcDbSymbolTableRecord
100
AcDbBlockTableRecord
  2
*D38
340
0
 70
     0
280
     1
281
     0
  0
BLOCK_RECORD
  5
8A5
330
7DD
100
AcDbSymbolTableRecord
100
AcDbBlockTableRecord
  2
*U39
340
0
102
{BLKREFS
331
4A3
102
}
 70
     0
280
     1
281
     0
  0
BLOCK_RECORD
  5
8A7
330
7DD
100
AcDbSymbolTableRecord
100
AcDbBlockTableRecord
  2
*D40
340
0
 70
     0
280
     1
281
     0
  0
BLOCK_RECORD
  5
8A9
330
7DD
100
AcDbSymbolTableRecord
100
AcDbBlockTableRecord
  2
*U41
340
0
102
{BLKREFS
331
4B0
102
}
 70
     0
280
     1
281
     0
  0
BLOCK_RECORD
  5
8AB
330
7DD
100
AcDbSymbolTableRecord
100
AcDbBlockTableRecord
  2
*D42
340
0
 70
     0
280
     1
281
     0
  0
BLOCK_RECORD
  5
8AD
330
7DD
100
AcDbSymbolTableRecord
100
AcDbBlockTableRecord
  2
*U43
340
0
102
{BLKREFS
331
799
102
}
 70
     0
280
     1
281
     0
  0
BLOCK_RECORD
  5
8AE
330
7DD
100
AcDbSymbolTableRecord
100
AcDbBlockTableRecord
  2
*D44
340
0
 70
     0
280
     1
281
     0
  0
BLOCK_RECORD
  5
8C1
102
{ACAD_XDICTIONARY
360
8C2
102
}
330
7DD
100
AcDbSymbolTableRecord
100
AcDbBlockTableRecord
  2
标致
340
0
310
2800000020000000200000000100080000000000000400000000000000000000000000000000000000000000000080000080000000808000800000008000800080800000C0C0C000C0DCC000F0CAA6000020400000206000002080000020A0000020C0000020E00000400000004020000040400000406000004080000040A0
310
000040C0000040E00000600000006020000060400000606000006080000060A0000060C0000060E00000800000008020000080400000806000008080000080A0000080C0000080E00000A0000000A0200000A0400000A0600000A0800000A0A00000A0C00000A0E00000C0000000C0200000C0400000C0600000C0800000C0
310
A00000C0C00000C0E00000E0000000E0200000E0400000E0600000E0800000E0A00000E0C00000E0E00040000000400020004000400040006000400080004000A0004000C0004000E00040200000402020004020400040206000402080004020A0004020C0004020E000404000004040200040404000404060004040800040
310
40A0004040C0004040E00040600000406020004060400040606000406080004060A0004060C0004060E00040800000408020004080400040806000408080004080A0004080C0004080E00040A0000040A0200040A0400040A0600040A0800040A0A00040A0C00040A0E00040C0000040C0200040C0400040C0600040C08000
310
40C0A00040C0C00040C0E00040E0000040E0200040E0400040E0600040E0800040E0A00040E0C00040E0E00080000000800020008000400080006000800080008000A0008000C0008000E00080200000802020008020400080206000802080008020A0008020C0008020E00080400000804020008040400080406000804080
310
008040A0008040C0008040E00080600000806020008060400080606000806080008060A0008060C0008060E00080800000808020008080400080806000808080008080A0008080C0008080E00080A0000080A0200080A0400080A0600080A0800080A0A00080A0C00080A0E00080C0000080C0200080C0400080C0600080C0
310
800080C0A00080C0C00080C0E00080E0000080E0200080E0400080E0600080E0800080E0A00080E0C00080E0E000C0000000C0002000C0004000C0006000C0008000C000A000C000C000C000E000C0200000C0202000C0204000C0206000C0208000C020A000C020C000C020E000C0400000C0402000C0404000C0406000C0
310
408000C040A000C040C000C040E000C0600000C0602000C0604000C0606000C0608000C060A000C060C000C060E000C0800000C0802000C0804000C0806000C0808000C080A000C080C000C080E000C0A00000C0A02000C0A04000C0A06000C0A08000C0A0A000C0A0C000C0A0E000C0C00000C0C02000C0C04000C0C06000
310
C0C08000C0C0A000F0FBFF00A4A0A000808080000000FF0000FF000000FFFF00FF000000FF00FF00FFFF0000FFFFFF0000000000000000000000000000000000000000000000000000000000000000000000000000000000000000000000000000000000000000000000000000000000000000000000000000000000000000
310
00000000000000000000000000000000000000000000000000000000000000000000000000000000000000000000000000000000000000000000000000000000000000000000000000000000000000000000000000000000000000000000000000000000000000000000000000000000000000000000000000000000000000
310
00000000000000000000000000000000000000000000000000000000000000000000000000000000000000000000000000000000000000000000000000000000000000000000000000000000000000000000000000000000000000000000000000000000000000000000000000000000000000000000000000000000000000
310
0000000000000000000000000000000000000000000000000000000000000000000000000000000000000000000000000000000000000000000000000000000000000000000000000000000000000000000000000000FFFF00000000000000000000000000000000000000FFFFFFFFFFFF00000000FFFFFFFF000000000000
310
000000FF00000000000000FFFFFFFFFFFFFF000000FFFFFF00FF00FFFFFFFFFFFFFFFFFFFFFFFFFFFFFFFFFFFFFFFF000000000000FFFFFF00FF00FFFFFFFFFFFFFFFFFFFFFFFFFFFFFFFFFFFFFFFFFFFFFF00000000FFFFFFFFFFFF00000000000000FF00000000000000FFFFFFFFFFFFFF000000000000FF000000000000
310
00000000000000000000000000000000000000000000000000000000000000000000000000000000000000000000000000000000000000000000000000000000000000000000000000000000000000000000000000000000000000000000000000000000000000000000000000000000000000000000000000000000000000
310
00000000000000000000000000000000000000000000000000000000000000000000000000000000000000000000000000000000000000000000000000000000000000000000000000000000000000000000000000000000000000000000000000000000000000000000000000000000000000000000000000000000000000
310
00000000000000000000000000000000000000000000000000000000000000000000000000000000000000000000000000000000000000000000000000000000000000000000000000000000000000000000000000000000000000000000000000000000000000000000000000000000000000000000000000000000000000
310
0000000000000000000000000000000000000000000000000000000000000000000000000000000000000000000000000000000000000000
 70
     1
280
     1
281
     1
1001
AcadStringInfo
1000
MIFCodePage
1070
     5
1001
ACAUTHENVIRON
1005
0
1001
AcDbDynamicBlockTrueName
1000
标致
1001
AcDbDynamicBlockGUID
1000
{2F4938A5-FAFA-6D4E-AE4E-0B56D2A93971}
  0
BLOCK_RECORD
  5
955
102
{ACAD_XDICTIONARY
360
956
102
}
330
7DD
100
AcDbSymbolTableRecord
100
AcDbBlockTableRecord
  2
1.1
340
0
102
{BLKREFS
331
978
102
}
 70
     4
280
     1
281
     0
1001
AcDbDynamicBlockGUID
1000
{33B41307-7CAF-1E40-B89A-15D7E0E20E69}
  0
ENDTAB
  0
ENDSEC
  0
SECTION
  2
BLOCKS
  0
BLOCK
  5
848
330
847
100
AcDbEntity
  8
0
100
AcDbBlockBegin
  2
*Model_Space
 70
     0
 10
0.0
 20
0.0
 30
0.0
  3
*Model_Space
  1

  0
ENDBLK
  5
849
330
847
100
AcDbEntity
  8
0
100
AcDbBlockEnd
  0
BLOCK
  5
844
330
843
100
AcDbEntity
 67
     1
  8
0
100
AcDbBlockBegin
  2
*Paper_Space
 70
     0
 10
0.0
 20
0.0
 30
0.0
  3
*Paper_Space
  1

  0
ENDBLK
  5
845
330
843
100
AcDbEntity
 67
     1
  8
0
100
AcDbBlockEnd
  0
BLOCK
  5
858
330
857
100
AcDbEntity
  8
0
100
AcDbBlockBegin
  2
$MODEL_SPACE
 70
     0
 10
0.0
 20
0.0
 30
0.0
  3
$MODEL_SPACE
  1

  0
ENDBLK
  5
706
330
857
100
AcDbEntity
  8
0
100
AcDbBlockEnd
  0
BLOCK
  5
85A
330
859
100
AcDbEntity
  8
0
100
AcDbBlockBegin
  2
$PAPER_SPACE
 70
     0
 10
0.0
 20
0.0
 30
0.0
  3
$PAPER_SPACE
  1

  0
ENDBLK
  5
702
330
859
100
AcDbEntity
  8
0
100
AcDbBlockEnd
  0
BLOCK
  5
85C
330
85B
100
AcDbEntity
  8
0
100
AcDbBlockBegin
  2
*U2
 70
     1
 10
0.0
 20
0.0
 30
0.0
  3
*U2
  1

  0
TEXT
  5
56A
330
85B
100
AcDbEntity
  8
梓蛁
100
AcDbText
 10
44252.55205654832
 20
-76710.64653726253
 30
0.0
 40
16.0
  1
461,2
 50
90.0
100
AcDbText
  0
ENDBLK
  5
56C
330
85B
100
AcDbEntity
  8
0
100
AcDbBlockEnd
  0
BLOCK
  5
85E
330
85D
100
AcDbEntity
  8
0
100
AcDbBlockBegin
  2
*U3
 70
     1
 10
0.0
 20
0.0
 30
0.0
  3
*U3
  1

  0
TEXT
  5
56E
330
85D
100
AcDbEntity
  8
梓蛁
100
AcDbText
 10
44039.75320619791
 20
-76968.38238764845
 30
0.0
 40
16.0
  1
232,6
100
AcDbText
  0
ENDBLK
  5
570
330
85D
100
AcDbEntity
  8
0
100
AcDbBlockEnd
  0
BLOCK
  5
860
330
85F
100
AcDbEntity
  8
0
100
AcDbBlockBegin
  2
*U4
 70
     1
 10
0.0
 20
0.0
 30
0.0
  3
*U4
  1

  0
TEXT
  5
572
330
85F
100
AcDbEntity
  8
梓蛁
100
AcDbText
 10
386.5439378092164
 20
315.1610684384897
 30
0.0
 40
16.0
  1
461,2
 50
90.0
100
AcDbText
  0
ENDBLK
  5
574
330
85F
100
AcDbEntity
  8
0
100
AcDbBlockEnd
  0
BLOCK
  5
862
330
861
100
AcDbEntity
  8
0
100
AcDbBlockBegin
  2
*U5
 70
     1
 10
0.0
 20
0.0
 30
0.0
  3
*U5
  1

  0
TEXT
  5
576
330
861
100
AcDbEntity
  8
梓蛁
100
AcDbText
 10
173.7450874587851
 20
57.42521805257563
 30
0.0
 40
16.0
  1
232,6
100
AcDbText
  0
ENDBLK
  5
578
330
861
100
AcDbEntity
  8
0
100
AcDbBlockEnd
  0
BLOCK
  5
864
330
863
100
AcDbEntity
  8
0
100
AcDbBlockBegin
  2
*U6
 70
     1
 10
0.0
 20
0.0
 30
0.0
  3
*U6
  1

  0
TEXT
  5
57A
330
863
100
AcDbEntity
  8
梓蛁
100
AcDbText
 10
44287.65447090502
 20
-82074.52794533931
 30
0.0
 40
16.0
  1
334,2
 50
90.0
100
AcDbText
  0
ENDBLK
  5
57C
330
863
100
AcDbEntity
  8
0
100
AcDbBlockEnd
  0
BLOCK
  5
866
330
865
100
AcDbEntity
  8
0
100
AcDbBlockBegin
  2
*U7
 70
     1
 10
0.0
 20
0.0
 30
0.0
  3
*U7
  1

  0
TEXT
  5
57E
330
865
100
AcDbEntity
  8
梓蛁
100
AcDbText
 10
43963.33344655418
 20
-82280.34394698905
 30
0.0
 40
16.0
  1
461,2
100
AcDbText
  0
ENDBLK
  5
580
330
865
100
AcDbEntity
  8
0
100
AcDbBlockEnd
  0
BLOCK
  5
868
330
867
100
AcDbEntity
  8
0
100
AcDbBlockBegin
  2
*U8
 70
     1
 10
0.0
 20
0.0
 30
0.0
  3
*U8
  1

  0
TEXT
  5
582
330
867
100
AcDbEntity
  8
梓蛁
100
AcDbText
 10
544.439839600434
 20
362.7126967423425
 30
0.0
 40
16.0
  1
334,2
 50
90.0
100
AcDbText
  0
ENDBLK
  5
584
330
867
100
AcDbEntity
  8
0
100
AcDbBlockEnd
  0
BLOCK
  5
86A
330
869
100
AcDbEntity
  8
0
100
AcDbBlockBegin
  2
*U9
 70
     1
 10
0.0
 20
0.0
 30
0.0
  3
*U9
  1

  0
TEXT
  5
586
330
869
100
AcDbEntity
  8
梓蛁
100
AcDbText
 10
220.1188152495638
 20
156.8966950926391
 30
0.0
 40
16.0
  1
461,2
100
AcDbText
  0
ENDBLK
  5
588
330
869
100
AcDbEntity
  8
0
100
AcDbBlockEnd
  0
BLOCK
  5
86C
330
86B
100
AcDbEntity
  8
0
100
AcDbBlockBegin
  2
*U10
 70
     1
 10
0.0
 20
0.0
 30
0.0
  3
*U10
  1

  0
TEXT
  5
58A
330
86B
100
AcDbEntity
  8
梓蛁盄
 62
     0
100
AcDbText
 10
43315.33006396752
 20
-87654.0981164182
 30
0.0
 40
18.0
  1
537,4
100
AcDbText
  0
ENDBLK
  5
58C
330
86B
100
AcDbEntity
  8
0
100
AcDbBlockEnd
  0
BLOCK
  5
86E
330
86D
100
AcDbEntity
  8
0
100
AcDbBlockBegin
  2
*U11
 70
     1
 10
0.0
 20
0.0
 30
0.0
  3
*U11
  1

  0
TEXT
  5
58E
330
86D
100
AcDbEntity
  8
梓蛁盄
 62
     0
100
AcDbText
 10
43695.29417280293
 20
-87401.93043806318
 30
0.0
 40
18.0
  1
410,4
 50
90.0
100
AcDbText
  0
ENDBLK
  5
590
330
86D
100
AcDbEntity
  8
0
100
AcDbBlockEnd
  0
BLOCK
  5
870
330
86F
100
AcDbEntity
  8
0
100
AcDbBlockBegin
  2
*U12
 70
     1
 10
0.0
 20
0.0
 30
0.0
  3
*U12
  1

  0
TEXT
  5
592
330
86F
100
AcDbEntity
  8
梓蛁盄
 62
     0
100
AcDbText
 10
882.0652217552355
 20
151.0578221864518
 30
0.0
 40
2.5
  1
537.4
100
AcDbText
  0
ENDBLK
  5
594
330
86F
100
AcDbEntity
  8
0
100
AcDbBlockEnd
  0
BLOCK
  5
872
330
871
100
AcDbEntity
  8
0
100
AcDbBlockBegin
  2
*U13
 70
     1
 10
0.0
 20
0.0
 30
0.0
  3
*U13
  1

  0
TEXT
  5
596
330
871
100
AcDbEntity
  8
梓蛁盄
 62
     0
100
AcDbText
 10
1235.90433059061
 20
438.2255005414803
 30
0.0
 40
2.5
  1
410.4
 50
90.0
100
AcDbText
  0
ENDBLK
  5
598
330
871
100
AcDbEntity
  8
0
100
AcDbBlockEnd
  0
BLOCK
  5
874
330
873
100
AcDbEntity
  8
0
100
AcDbBlockBegin
  2
*U14
 70
     1
 10
0.0
 20
0.0
 30
0.0
  3
*U14
  1

  0
TEXT
  5
59A
330
873
100
AcDbEntity
  8
0
 62
     0
100
AcDbText
 10
43186.06481653179
 20
-93187.73156556183
 30
0.0
 40
15.0
  1
715,2
100
AcDbText
  0
ENDBLK
  5
59C
330
873
100
AcDbEntity
  8
0
100
AcDbBlockEnd
  0
BLOCK
  5
876
330
875
100
AcDbEntity
  8
0
100
AcDbBlockBegin
  2
*U15
 70
     1
 10
0.0
 20
0.0
 30
0.0
  3
*U15
  1

  0
TEXT
  5
59E
330
875
100
AcDbEntity
  8
0
 62
     0
100
AcDbText
 10
897.1311874141084
 20
228.9501172683933
 30
0.0
 40
15.0
  1
715,2
100
AcDbText
  0
ENDBLK
  5
5A0
330
875
100
AcDbEntity
  8
0
100
AcDbBlockEnd
  0
BLOCK
  5
878
330
877
100
AcDbEntity
  8
0
100
AcDbBlockBegin
  2
*U16
 70
     1
 10
0.0
 20
0.0
 30
0.0
  3
*U16
  1

  0
TEXT
  5
5A2
330
877
100
AcDbEntity
  8
0
 62
     0
100
AcDbText
 10
43186.06481653179
 20
-93187.73156556183
 30
0.0
 40
15.0
  1
715,2
100
AcDbText
  0
ENDBLK
  5
5A4
330
877
100
AcDbEntity
  8
0
100
AcDbBlockEnd
  0
BLOCK
  5
87A
330
879
100
AcDbEntity
  8
0
100
AcDbBlockBegin
  2
*U17
 70
     1
 10
0.0
 20
0.0
 30
0.0
  3
*U17
  1

  0
TEXT
  5
5A6
330
879
100
AcDbEntity
  8
梓蛁
100
AcDbText
 10
44381.76598859285
 20
-98094.42863570424
 30
0.0
 40
16.0
  1
474,7
 50
90.0
100
AcDbText
  0
ENDBLK
  5
5A8
330
879
100
AcDbEntity
  8
0
100
AcDbBlockEnd
  0
BLOCK
  5
87C
330
87B
100
AcDbEntity
  8
0
100
AcDbBlockBegin
  2
*U18
 70
     1
 10
0.0
 20
0.0
 30
0.0
  3
*U18
  1

  0
TEXT
  5
5AA
330
87B
100
AcDbEntity
  8
梓蛁
100
AcDbText
 10
43831.13433698313
 20
-98367.62505387438
 30
0.0
 40
16.0
  1
842,2
100
AcDbText
  0
ENDBLK
  5
5AC
330
87B
100
AcDbEntity
  8
0
100
AcDbBlockEnd
  0
BLOCK
  5
87E
330
87D
100
AcDbEntity
  8
0
100
AcDbBlockBegin
  2
*U19
 70
     1
 10
0.0
 20
0.0
 30
0.0
  3
*U19
  1

  0
TEXT
  5
5AE
330
87D
100
AcDbEntity
  8
0
 62
     0
100
AcDbText
 10
569.0391136929705
 20
5423.792344108977
 30
0.0
 40
15.0
  1
715,2
100
AcDbText
  0
ENDBLK
  5
5B0
330
87D
100
AcDbEntity
  8
0
100
AcDbBlockEnd
  0
BLOCK
  5
880
330
87F
100
AcDbEntity
  8
0
100
AcDbBlockBegin
  2
*U20
 70
     1
 10
0.0
 20
0.0
 30
0.0
  3
*U20
  1

  0
TEXT
  5
5B6
330
87F
100
AcDbEntity
  8
梓蛁
100
AcDbText
 10
44381.76598859284
 20
517.0952739665938
 30
0.0
 40
16.0
  1
474,7
 50
90.0
100
AcDbText
  0
ENDBLK
  5
5B8
330
87F
100
AcDbEntity
  8
0
100
AcDbBlockEnd
  0
BLOCK
  5
882
330
881
100
AcDbEntity
  8
0
100
AcDbBlockBegin
  2
*U21
 70
     1
 10
0.0
 20
0.0
 30
0.0
  3
*U21
  1

  0
TEXT
  5
5B2
330
881
100
AcDbEntity
  8
梓蛁
100
AcDbText
 10
1214.108634144298
 20
243.8988557964052
 30
0.0
 40
16.0
  1
842,2
100
AcDbText
  0
ENDBLK
  5
5B4
330
881
100
AcDbEntity
  8
0
100
AcDbBlockEnd
  0
BLOCK
  5
884
330
883
100
AcDbEntity
  8
0
100
AcDbBlockBegin
  2
*U22
 70
     1
 10
0.0
 20
0.0
 30
0.0
  3
*U22
  1

  0
TEXT
  5
5BA
330
883
100
AcDbEntity
  8
0
 62
     0
100
AcDbText
 10
43186.06481653179
 20
-93187.73156556183
 30
0.0
 40
15.0
  1
715,2
100
AcDbText
  0
ENDBLK
  5
5BC
330
883
100
AcDbEntity
  8
0
100
AcDbBlockEnd
  0
BLOCK
  5
886
330
885
100
AcDbEntity
  8
0
100
AcDbBlockBegin
  2
*U23
 70
     1
 10
0.0
 20
0.0
 30
0.0
  3
*U23
  1

  0
TEXT
  5
5BE
330
885
100
AcDbEntity
  8
梓蛁
100
AcDbText
 10
44381.76598859285
 20
-98094.42863570424
 30
0.0
 40
16.0
  1
474,7
 50
90.0
100
AcDbText
  0
ENDBLK
  5
5C0
330
885
100
AcDbEntity
  8
0
100
AcDbBlockEnd
  0
BLOCK
  5
888
330
887
100
AcDbEntity
  8
0
100
AcDbBlockBegin
  2
*U24
 70
     1
 10
0.0
 20
0.0
 30
0.0
  3
*U24
  1

  0
TEXT
  5
5C2
330
887
100
AcDbEntity
  8
梓蛁
100
AcDbText
 10
43831.13433698313
 20
-98367.62505387438
 30
0.0
 40
16.0
  1
842,2
100
AcDbText
  0
ENDBLK
  5
5C4
330
887
100
AcDbEntity
  8
0
100
AcDbBlockEnd
  0
BLOCK
  5
88A
330
889
100
AcDbEntity
  8
0
100
AcDbBlockBegin
  2
*U25
 70
     1
 10
0.0
 20
0.0
 30
0.0
  3
*U25
  1

  0
TEXT
  5
5C6
330
889
100
AcDbEntity
  8
梓蛁
100
AcDbText
 10
44931.19238400497
 20
-103513.5756517505
 30
0.0
 40
16.0
  1
455,8
 50
90.0
100
AcDbText
  0
ENDBLK
  5
5C8
330
889
100
AcDbEntity
  8
0
100
AcDbBlockEnd
  0
BLOCK
  5
88C
330
88B
100
AcDbEntity
  8
0
100
AcDbBlockBegin
  2
*U26
 70
     1
 10
0.0
 20
0.0
 30
0.0
  3
*U26
  1

  0
TEXT
  5
5CA
330
88B
100
AcDbEntity
  8
梓蛁
100
AcDbText
 10
44439.3483234278
 20
-103769.6224617389
 30
0.0
 40
16.0
  1
769,2
100
AcDbText
  0
ENDBLK
  5
5CC
330
88B
100
AcDbEntity
  8
0
100
AcDbBlockEnd
  0
BLOCK
  5
88E
330
88D
100
AcDbEntity
  8
0
100
AcDbBlockBegin
  2
*U27
 70
     1
 10
0.0
 20
0.0
 30
0.0
  3
*U27
  1

  0
TEXT
  5
5CE
330
88D
100
AcDbEntity
  8
0
 62
     0
100
AcDbText
 10
988.4350818825936
 20
10493.80498707464
 30
0.0
 40
15.0
  1
715,2
100
AcDbText
  0
ENDBLK
  5
5D0
330
88D
100
AcDbEntity
  8
0
100
AcDbBlockEnd
  0
BLOCK
  5
890
330
88F
100
AcDbEntity
  8
0
100
AcDbBlockBegin
  2
*U28
 70
     1
 10
0.0
 20
0.0
 30
0.0
  3
*U28
  1

  0
TEXT
  5
5D6
330
88F
100
AcDbEntity
  8
梓蛁
100
AcDbText
 10
2733.562649355778
 20
167.9609008859405
 30
0.0
 40
16.0
  1
455,8
 50
90.0
100
AcDbText
  0
ENDBLK
  5
5D8
330
88F
100
AcDbEntity
  8
0
100
AcDbBlockEnd
  0
BLOCK
  5
892
330
891
100
AcDbEntity
  8
0
100
AcDbBlockBegin
  2
*U29
 70
     1
 10
0.0
 20
0.0
 30
0.0
  3
*U29
  1

  0
TEXT
  5
5DE
330
891
100
AcDbEntity
  8
梓蛁
100
AcDbText
 10
44381.76598859284
 20
5587.107916932257
 30
0.0
 40
16.0
  1
474,7
 50
90.0
100
AcDbText
  0
ENDBLK
  5
5E0
330
891
100
AcDbEntity
  8
0
100
AcDbBlockEnd
  0
BLOCK
  5
894
330
893
100
AcDbEntity
  8
0
100
AcDbBlockBegin
  2
*U30
 70
     1
 10
0.0
 20
0.0
 30
0.0
  3
*U30
  1

  0
TEXT
  5
5D2
330
893
100
AcDbEntity
  8
梓蛁
100
AcDbText
 10
1633.504602333921
 20
5313.911498762065
 30
0.0
 40
16.0
  1
842,2
100
AcDbText
  0
ENDBLK
  5
5D4
330
893
100
AcDbEntity
  8
0
100
AcDbBlockEnd
  0
BLOCK
  5
896
330
895
100
AcDbEntity
  8
0
100
AcDbBlockBegin
  2
*U31
 70
     1
 10
0.0
 20
0.0
 30
0.0
  3
*U31
  1

  0
TEXT
  5
5DA
330
895
100
AcDbEntity
  8
梓蛁
100
AcDbText
 10
2241.71858877862
 20
-88.08590910250988
 30
0.0
 40
16.0
  1
769,2
100
AcDbText
  0
ENDBLK
  5
5DC
330
895
100
AcDbEntity
  8
0
100
AcDbBlockEnd
  0
BLOCK
  5
898
330
897
100
AcDbEntity
  8
0
100
AcDbBlockBegin
  2
*U32
 70
     1
 10
0.0
 20
0.0
 30
0.0
  3
*U32
  1

  0
TEXT
  5
5E2
330
897
100
AcDbEntity
  8
0
 62
     0
100
AcDbText
 10
2270.051922111953
 20
-84.3350466379052
 30
0.0
 40
2.5
  1
769.2
100
AcDbText
  0
ENDBLK
  5
5E4
330
897
100
AcDbEntity
  8
0
100
AcDbBlockEnd
  0
BLOCK
  5
89A
330
899
100
AcDbEntity
  8
0
100
AcDbBlockBegin
  2
*U33
 70
     1
 10
0.0
 20
0.0
 30
0.0
  3
*U33
  1

  0
TEXT
  5
5E6
330
899
100
AcDbEntity
  8
0
 62
     0
100
AcDbText
 10
2269.051922111957
 20
-72.28455976168106
 30
0.0
 40
2.5
  1
767.2
100
AcDbText
  0
ENDBLK
  5
5E8
330
899
100
AcDbEntity
  8
0
100
AcDbBlockEnd
  0
BLOCK
  5
89C
330
89B
100
AcDbEntity
  8
0
100
AcDbBlockBegin
  2
*U34
 70
     1
 10
0.0
 20
0.0
 30
0.0
  3
*U34
  1

  0
TEXT
  5
5EA
330
89B
100
AcDbEntity
  8
梓蛁
100
AcDbText
 10
2241.71858877862
 20
-111.1956851361416
 30
0.0
 40
16.0
  1
769,2
100
AcDbText
  0
ENDBLK
  5
5EC
330
89B
100
AcDbEntity
  8
0
100
AcDbBlockEnd
  0
BLOCK
  5
89E
330
89D
100
AcDbEntity
  8
0
100
AcDbBlockBegin
  2
*U35
 70
     1
 10
0.0
 20
0.0
 30
0.0
  3
*U35
  1

  0
TEXT
  5
5EE
330
89D
100
AcDbEntity
  8
梓蛁
100
AcDbText
 10
2745.559415878785
 20
153.2963408409966
 30
0.0
 40
16.0
  1
455,8
 50
90.0
100
AcDbText
  0
ENDBLK
  5
5F0
330
89D
100
AcDbEntity
  8
0
100
AcDbBlockEnd
  0
BLOCK
  5
8A0
330
89F
100
AcDbEntity
  8
0
100
AcDbBlockBegin
  2
*U36
 70
     1
 10
0.0
 20
0.0
 30
0.0
  3
*U36
  1

  0
TEXT
  5
5F2
330
89F
100
AcDbEntity
  8
梓蛁盄
100
AcDbText
 10
76023.64482877669
 20
-117245.6598503463
 30
0.0
 40
16.0
  1
455,9
 50
90.0
100
AcDbText
  0
ENDBLK
  5
5F4
330
89F
100
AcDbEntity
  8
0
100
AcDbBlockEnd
  0
BLOCK
  5
8A2
330
8A1
100
AcDbEntity
  8
0
100
AcDbBlockBegin
  2
*U37
 70
     1
 10
0.0
 20
0.0
 30
0.0
  3
*U37
  1

  0
TEXT
  5
5F6
330
8A1
100
AcDbEntity
  8
梓蛁盄
100
AcDbText
 10
75528.96569679871
 20
-117504.9342731092
 30
0.0
 40
16.0
  1
769,2
100
AcDbText
  0
ENDBLK
  5
5F8
330
8A1
100
AcDbEntity
  8
0
100
AcDbBlockEnd
  0
BLOCK
  5
8A4
330
8A3
100
AcDbEntity
  8
0
100
AcDbBlockBegin
  2
*D38
 70
     1
 10
0.0
 20
0.0
 30
0.0
  3
*D38
  1

  0
LINE
  5
49D
330
8A3
100
AcDbEntity
  8
梓蛁盄
440
 16777216
100
AcDbLine
 10
4008.119798339234
 20
410.2266652830976
 30
0.0
 11
4064.196430317156
 21
410.2266652830976
 31
0.0
  0
LINE
  5
49E
330
8A3
100
AcDbEntity
  8
梓蛁盄
440
 16777216
100
AcDbLine
 10
4008.119798339234
 20
-45.63582945957477
 30
0.0
 11
4064.196430317156
 21
-45.63582945957478
 31
0.0
  0
LINE
  5
49F
330
8A3
100
AcDbEntity
  8
梓蛁盄
440
 16777216
100
AcDbLine
 10
4056.196430317156
 20
394.2266652830976
 30
0.0
 11
4056.196430317156
 21
220.6287512450948
 31
0.0
  0
LINE
  5
4A0
330
8A3
100
AcDbEntity
  8
梓蛁盄
440
 16777216
100
AcDbLine
 10
4056.196430317156
 20
-29.6358294595748
 30
0.0
 11
4056.196430317156
 21
143.9620845784281
 31
0.0
  0
SOLID
  5
4A1
330
8A3
100
AcDbEntity
  8
梓蛁盄
440
 16777216
100
AcDbTrace
 10
4053.529763650488
 20
394.2266652830976
 30
0.0
 11
4058.863096983821
 21
394.2266652830976
 31
0.0
 12
4056.196430317156
 22
410.2266652830976
 32
0.0
 13
4056.196430317156
 23
410.2266652830976
 33
0.0
  0
SOLID
  5
4A2
330
8A3
100
AcDbEntity
  8
梓蛁盄
440
 16777216
100
AcDbTrace
 10
4053.529763650488
 20
-29.6358294595748
 30
0.0
 11
4058.863096983821
 21
-29.6358294595748
 31
0.0
 12
4056.196430317156
 22
-45.63582945957478
 32
0.0
 13
4056.196430317156
 23
-45.63582945957478
 33
0.0
  0
INSERT
  5
4A3
330
8A3
100
AcDbEntity
  8
梓蛁
440
 16777216
100
AcDbBlockReference
  2
*U39
 10
0.0
 20
0.0
 30
0.0
  0
POINT
  5
4A4
330
8A3
100
AcDbEntity
  8
DEFPOINTS
 62
     0
440
 16777216
100
AcDbPoint
 10
3986.119798339235
 20
410.2266652830976
 30
0.0
  0
POINT
  5
4A5
330
8A3
100
AcDbEntity
  8
DEFPOINTS
 62
     0
440
 16777216
100
AcDbPoint
 10
3986.119798339235
 20
-45.63582945957477
 30
0.0
  0
POINT
  5
4A6
330
8A3
100
AcDbEntity
  8
DEFPOINTS
 62
     0
440
 16777216
100
AcDbPoint
 10
4056.196430317156
 20
-45.63582945957478
 30
0.0
  0
ENDBLK
  5
4A8
330
8A3
100
AcDbEntity
  8
0
100
AcDbBlockEnd
  0
BLOCK
  5
8A6
330
8A5
100
AcDbEntity
  8
0
100
AcDbBlockBegin
  2
*U39
 70
     1
 10
0.0
 20
0.0
 30
0.0
  3
*U39
  1

  0
TEXT
  5
5FA
330
8A5
100
AcDbEntity
  8
梓蛁盄
100
AcDbText
 10
4062.863096983821
 20
148.9620845784287
 30
0.0
 40
16.0
  1
455,9
 50
90.0
100
AcDbText
  0
ENDBLK
  5
5FC
330
8A5
100
AcDbEntity
  8
0
100
AcDbBlockEnd
  0
BLOCK
  5
8A8
330
8A7
100
AcDbEntity
  8
0
100
AcDbBlockBegin
  2
*D40
 70
     1
 10
0.0
 20
0.0
 30
0.0
  3
*D40
  1

  0
LINE
  5
4AA
330
8A7
100
AcDbEntity
  8
梓蛁盄
100
AcDbLine
 10
3216.914798339218
 20
-67.63582945960388
 30
0.0
 11
3216.914798339218
 21
-111.6456715177673
 31
0.0
  0
LINE
  5
4AB
330
8A7
100
AcDbEntity
  8
梓蛁盄
100
AcDbLine
 10
3986.119798339235
 20
-67.63582945957478
 30
0.0
 11
3986.119798339235
 21
-111.6456715177673
 31
0.0
  0
LINE
  5
4AC
330
8A7
100
AcDbEntity
  8
梓蛁盄
100
AcDbLine
 10
3232.914798339218
 20
-103.6456715177674
 30
0.0
 11
3563.183965005893
 21
-103.6456715177674
 31
0.0
  0
LINE
  5
4AD
330
8A7
100
AcDbEntity
  8
梓蛁盄
100
AcDbLine
 10
3970.119798339236
 20
-103.6456715177674
 30
0.0
 11
3639.85063167256
 21
-103.6456715177674
 31
0.0
  0
SOLID
  5
4AE
330
8A7
100
AcDbEntity
  8
梓蛁盄
100
AcDbTrace
 10
3232.914798339218
 20
-100.9790048511007
 30
0.0
 11
3232.914798339218
 21
-106.312338184434
 31
0.0
 12
3216.914798339218
 22
-103.6456715177674
 32
0.0
 13
3216.914798339218
 23
-103.6456715177674
 33
0.0
  0
SOLID
  5
4AF
330
8A7
100
AcDbEntity
  8
梓蛁盄
100
AcDbTrace
 10
3970.119798339236
 20
-100.9790048511007
 30
0.0
 11
3970.119798339236
 21
-106.312338184434
 31
0.0
 12
3986.119798339235
 22
-103.6456715177674
 32
0.0
 13
3986.119798339235
 23
-103.6456715177674
 33
0.0
  0
INSERT
  5
4B0
330
8A7
100
AcDbEntity
  8
梓蛁
100
AcDbBlockReference
  2
*U41
 10
0.0
 20
0.0
 30
0.0
  0
POINT
  5
4B1
330
8A7
100
AcDbEntity
  8
DEFPOINTS
 62
     0
100
AcDbPoint
 10
3216.914798339218
 20
-45.63582945960388
 30
0.0
  0
POINT
  5
4B2
330
8A7
100
AcDbEntity
  8
DEFPOINTS
 62
     0
100
AcDbPoint
 10
3986.119798339235
 20
-45.63582945957477
 30
0.0
  0
POINT
  5
4B3
330
8A7
100
AcDbEntity
  8
DEFPOINTS
 62
     0
100
AcDbPoint
 10
3986.119798339235
 20
-103.6456715177674
 30
0.0
  0
ENDBLK
  5
4B5
330
8A7
100
AcDbEntity
  8
0
100
AcDbBlockEnd
  0
BLOCK
  5
8AA
330
8A9
100
AcDbEntity
  8
0
100
AcDbBlockBegin
  2
*U41
 70
     1
 10
0.0
 20
0.0
 30
0.0
  3
*U41
  1

  0
TEXT
  5
5FE
330
8A9
100
AcDbEntity
  8
梓蛁盄
100
AcDbText
 10
3568.183965005893
 20
-110.312338184434
 30
0.0
 40
16.0
  1
769,2
100
AcDbText
  0
ENDBLK
  5
600
330
8A9
100
AcDbEntity
  8
0
100
AcDbBlockEnd
  0
BLOCK
  5
8AC
330
8AB
100
AcDbEntity
  8
0
100
AcDbBlockBegin
  2
*D42
 70
     1
 10
0.0
 20
0.0
 30
0.0
  3
*D42
  1

  0
LINE
  5
794
330
8AB
100
AcDbEntity
  8
梓蛁盄
 62
     0
100
AcDbLine
 10
3220.119798339236
 20
-46.26082945960383
 30
0.0
 11
3220.119798339236
 21
-104.8956715177674
 31
0.0
  0
LINE
  5
795
330
8AB
100
AcDbEntity
  8
梓蛁盄
 62
     0
100
AcDbLine
 10
3986.119798339235
 20
-46.26082945957477
 30
0.0
 11
3986.119798339235
 21
-104.8956715177674
 31
0.0
  0
LINE
  5
796
330
8AB
100
AcDbEntity
  8
梓蛁盄
 62
     0
100
AcDbLine
 10
3222.619798339235
 20
-103.6456715177674
 30
0.0
 11
3983.619798339235
 21
-103.6456715177674
 31
0.0
  0
SOLID
  5
797
330
8AB
100
AcDbEntity
  8
梓蛁盄
 62
     0
100
AcDbTrace
 10
3222.619798339235
 20
-103.2290048511007
 30
0.0
 11
3222.619798339235
 21
-104.0623381844341
 31
0.0
 12
3220.119798339236
 22
-103.6456715177674
 32
0.0
 13
3220.119798339236
 23
-103.6456715177674
 33
0.0
  0
SOLID
  5
798
330
8AB
100
AcDbEntity
  8
梓蛁盄
 62
     0
100
AcDbTrace
 10
3983.619798339235
 20
-103.2290048511007
 30
0.0
 11
3983.619798339235
 21
-104.0623381844341
 31
0.0
 12
3986.119798339235
 22
-103.6456715177674
 32
0.0
 13
3986.119798339235
 23
-103.6456715177674
 33
0.0
  0
INSERT
  5
799
330
8AB
100
AcDbEntity
  8
梓蛁
100
AcDbBlockReference
  2
*U43
 10
0.0
 20
0.0
 30
0.0
  0
POINT
  5
79A
330
8AB
100
AcDbEntity
  8
DEFPOINTS
 62
     0
100
AcDbPoint
 10
3220.119798339236
 20
-45.63582945960383
 30
0.0
  0
POINT
  5
79B
330
8AB
100
AcDbEntity
  8
DEFPOINTS
 62
     0
100
AcDbPoint
 10
3986.119798339235
 20
-45.63582945957477
 30
0.0
  0
POINT
  5
79C
330
8AB
100
AcDbEntity
  8
DEFPOINTS
 62
     0
100
AcDbPoint
 10
3986.119798339235
 20
-103.6456715177674
 30
0.0
  0
ENDBLK
  5
778
330
8AB
100
AcDbEntity
  8
0
100
AcDbBlockEnd
  0
BLOCK
  5
8B0
330
8AD
100
AcDbEntity
  8
0
100
AcDbBlockBegin
  2
*U43
 70
     1
 10
0.0
 20
0.0
 30
0.0
  3
*U43
  1

  0
TEXT
  5
7CF
330
8AD
100
AcDbEntity
  8
梓蛁盄
 62
     0
100
AcDbText
 10
3599.786465005901
 20
-103.0206715177674
 30
0.0
 40
2.5
  1
766
100
AcDbText
  0
ENDBLK
  5
7D1
330
8AD
100
AcDbEntity
  8
0
100
AcDbBlockEnd
  0
BLOCK
  5
8AF
330
8AE
100
AcDbEntity
  8
0
100
AcDbBlockBegin
  2
*D44
 70
     1
 10
0.0
 20
0.0
 30
0.0
  3
*D44
  1

  0
LINE
  5
7D2
330
8AE
100
AcDbEntity
  8
梓蛁
440
 16777216
100
AcDbLine
 10
3220.119798339236
 20
-67.63582945960383
 30
0.0
 11
3220.119798339236
 21
-110.60865305983
 31
0.0
  0
LINE
  5
7D3
330
8AE
100
AcDbEntity
  8
梓蛁
440
 16777216
100
AcDbLine
 10
3986.119798339235
 20
-67.63582945957478
 30
0.0
 11
3986.119798339235
 21
-110.60865305983
 31
0.0
  0
LINE
  5
7D4
330
8AE
100
AcDbEntity
  8
梓蛁
440
 16777216
100
AcDbLine
 10
3236.119798339235
 20
-102.60865305983
 30
0.0
 11
3576.786465005901
 21
-102.60865305983
 31
0.0
  0
LINE
  5
7D5
330
8AE
100
AcDbEntity
  8
梓蛁
440
 16777216
100
AcDbLine
 10
3970.119798339236
 20
-102.60865305983
 30
0.0
 11
3629.453131672568
 21
-102.60865305983
 31
0.0
  0
SOLID
  5
7D6
330
8AE
100
AcDbEntity
  8
梓蛁
440
 16777216
100
AcDbTrace
 10
3236.119798339235
 20
-99.9419863931633
 30
0.0
 11
3236.119798339235
 21
-105.2753197264966
 31
0.0
 12
3220.119798339236
 22
-102.60865305983
 32
0.0
 13
3220.119798339236
 23
-102.60865305983
 33
0.0
  0
SOLID
  5
7D7
330
8AE
100
AcDbEntity
  8
梓蛁
440
 16777216
100
AcDbTrace
 10
3970.119798339236
 20
-99.9419863931633
 30
0.0
 11
3970.119798339236
 21
-105.2753197264966
 31
0.0
 12
3986.119798339235
 22
-102.60865305983
 32
0.0
 13
3986.119798339235
 23
-102.60865305983
 33
0.0
  0
TEXT
  5
7DC
330
8AE
100
AcDbEntity
  8
梓蛁
440
 16777216
100
AcDbText
 10
3571.12
 20
-130.929
 30
0.0
 40
16.0
  1
766
100
AcDbText
  0
POINT
  5
7D9
330
8AE
100
AcDbEntity
  8
DEFPOINTS
 62
     0
440
 16777216
100
AcDbPoint
 10
3220.119798339236
 20
-45.63582945960383
 30
0.0
  0
POINT
  5
7DA
330
8AE
100
AcDbEntity
  8
DEFPOINTS
 62
     0
440
 16777216
100
AcDbPoint
 10
3986.119798339235
 20
-45.63582945957477
 30
0.0
  0
POINT
  5
7DB
330
8AE
100
AcDbEntity
  8
DEFPOINTS
 62
     0
440
 16777216
100
AcDbPoint
 10
3986.119798339235
 20
-102.60865305983
 30
0.0
  0
ENDBLK
  5
7AA
330
8AE
100
AcDbEntity
  8
0
100
AcDbBlockEnd
  0
BLOCK
  5
8C5
330
8C1
100
AcDbEntity
  8
0
100
AcDbBlockBegin
  2
标致
 70
     0
 10
0.0
 20
0.0
 30
0.0
  3
标致
  1

1001
AcadStringInfo
1000
MIFCodePage
1070
     5
  0
CIRCLE
  5
8C6
330
8C1
100
AcDbEntity
  8
0
100
AcDbCircle
 10
0.0
 20
0.0250000000000057
 30
0.0
 40
0.25
  0
ARC
  5
8C7
330
8C1
100
AcDbEntity
  8
0
100
AcDbCircle
 10
0.0
 20
0.0250000000000057
 30
0.0
 40
0.2
100
AcDbArc
 50
270.0
 51
90.0
  0
LINE
  5
8C8
330
8C1
100
AcDbEntity
  8
0
100
AcDbLine
 10
0.0
 20
0.0250000000000057
 30
0.0
 11
0.0
 21
0.0250000000000057
 31
0.0
  0
LINE
  5
8C9
330
8C1
100
AcDbEntity
  8
0
100
AcDbLine
 10
0.0
 20
0.2250000000000085
 30
0.0
 11
0.0
 21
-0.2249999999999943
 31
0.0
  0
MTEXT
  5
8CA
330
8C1
100
AcDbEntity
  8
0
100
AcDbMText
 10
0.3089960182948062
 20
0.2543424873502147
 30
0.0
 40
0.05
 41
0.1227385067235787
 46
0.0
 71
     1
 72
     5
  1
TM
 73
     1
 44
1.0
1001
ACAD
1000
MTEXTBEGIN
1070
    73
1070
     1
1070
    44
1040
1.0
1070
    74
1070
     0
1000
MTEXTEND
1000
ACAD_MTEXT_COLUMN_INFO_BEGIN
1070
    75
1070
     2
1070
    79
1070
     0
1070
    76
1070
     1
1070
    78
1070
     0
1070
    48
1040
0.1227385067235787
1070
    49
1040
12.5
1070
    50
1070
     1
1040
0.0
1000
ACAD_MTEXT_COLUMN_INFO_END
  0
MTEXT
  5
8CB
330
8C1
100
AcDbEntity
  8
0
100
AcDbMText
 10
0.3541674379640085
 20
0.1226887029870625
 30
0.0
 40
0.1
 41
2.128701881776748
 46
0.0
 71
     1
 72
     5
  1
{\fSTZhongsong|b0|i0|c134|p2;  \H2x;PEARL SINKS  \H0.99997x; \H0.5x;                                                } 
 73
     1
 44
1.0
1001
ACAD
1000
MTEXTBEGIN
1070
    73
1070
     1
1070
    44
1040
1.0
1070
    74
1070
     0
1000
MTEXTEND
1000
ACAD_MTEXT_COLUMN_INFO_BEGIN
1070
    75
1070
     2
1070
    79
1070
     0
1070
    76
1070
     1
1070
    78
1070
     0
1070
    48
1040
2.128701881776748
1070
    49
1040
12.5
1070
    50
1070
     1
1040
0.3201592490061049
1000
ACAD_MTEXT_COLUMN_INFO_END
  0
LINE
  5
8CC
330
8C1
100
AcDbEntity
  8
0
100
AcDbLine
 10
1.532152174232694
 20
0.2248892820315067
 30
0.0
 11
1.532152174232694
 21
-0.1699469701599749
 31
0.0
  0
MTEXT
  5
8CD
330
8C1
100
AcDbEntity
  8
0
100
AcDbMText
 10
2.553502546474831
 20
0.2325771324782
 30
0.0
 40
0.1
 41
0.7617073723250201
 46
0.0
 71
     1
 72
     5
  1
{\fSTZhongsong|b0|i0|c134|p2;KITCHEN\PBAR\PVANITIES                                               }
 73
     1
 44
1.0
1001
ACAD
1000
MTEXTBEGIN
1070
    73
1070
     1
1070
    44
1040
1.0
1070
    74
1070
     0
1000
MTEXTEND
1000
ACAD_MTEXT_COLUMN_INFO_BEGIN
1070
    75
1070
     2
1070
    79
1070
     0
1070
    76
1070
     1
1070
    78
1070
     0
1070
    48
1040
0.7617073723250201
1070
    49
1040
12.5
1070
    50
1070
     1
1040
0.0
1000
ACAD_MTEXT_COLUMN_INFO_END
  0
ENDBLK
  5
8CE
330
8C1
100
AcDbEntity
  8
0
100
AcDbBlockEnd
  0
BLOCK
  5
957
330
955
100
AcDbEntity
  8
0
100
AcDbBlockBegin
  2
1.1
 70
     0
 10
0.0
 20
0.0
 30
0.0
  3
1.1
  1

  0
SPLINE
  5
958
330
955
100
AcDbEntity
  8
0
370
     0
100
AcDbSpline
210
0.0
220
0.0
230
1.0
 70
     9
 71
     3
 72
    17
 73
    13
 74
     0
 42
0.000000001
 43
0.0000000001
 40
0.0
 40
0.0
 40
0.0
 40
0.0
 40
1.0
 40
1.0
 40
1.0
 40
2.0
 40
2.0
 40
2.0
 40
3.0
 40
3.0
 40
3.0
 40
4.0
 40
4.0
 40
4.0
 40
4.0
 10
690.8192287182941
 20
581.4140123371299
 30
0.0
 10
672.2082467840622
 20
581.4140123371299
 30
0.0
 10
657.0670164663937
 20
566.2118269859761
 30
0.0
 10
657.0670164663937
 20
547.5254950748268
 30
0.0
 10
657.0670164663937
 20
528.8400108316529
 30
0.0
 10
672.2082467840622
 20
513.637363116149
 30
0.0
 10
690.8192287182941
 20
513.637363116149
 30
0.0
 10
709.4299948824962
 20
513.637363116149
 30
0.0
 10
724.5707011872347
 20
528.8400108316529
 30
0.0
 10
724.5707011872347
 20
547.5254950748268
 30
0.0
 10
724.5707011872347
 20
566.2118269859761
 30
0.0
 10
709.4299948824962
 20
581.4140123371299
 30
0.0
 10
690.8192287182941
 20
581.4140123371299
 30
0.0
  0
SPLINE
  5
959
330
955
100
AcDbEntity
  8
0
370
     0
100
AcDbSpline
210
0.0
220
0.0
230
1.0
 70
     9
 71
     3
 72
    32
 73
    28
 74
     0
 42
0.000000001
 43
0.0000000001
 40
0.0
 40
0.0
 40
0.0
 40
0.0
 40
1.0
 40
1.0
 40
1.0
 40
2.0
 40
2.0
 40
2.0
 40
3.0
 40
3.0
 40
3.0
 40
4.0
 40
4.0
 40
4.0
 40
5.0
 40
5.0
 40
5.0
 40
6.0
 40
6.0
 40
6.0
 40
7.0
 40
7.0
 40
7.0
 40
8.0
 40
8.0
 40
8.0
 40
9.0
 40
9.0
 40
9.0
 40
9.0
 10
691.855340990379
 20
515.7357728946773
 30
0.0
 10
691.855340990379
 20
515.7357728946773
 30
0.0
 10
691.855340990379
 20
521.8768499559478
 30
0.0
 10
691.855340990379
 20
521.8768499559478
 30
0.0
 10
705.4773961751489
 20
522.4253065480077
 30
0.0
 10
716.3921847930659
 20
533.7173998877313
 30
0.0
 10
716.3921847930659
 20
547.5254950748268
 30
0.0
 10
716.3921847930659
 20
561.6833072441749
 30
0.0
 10
704.9202933697429
 20
573.2013272174904
 30
0.0
 10
690.8192287182941
 20
573.2013272174904
 30
0.0
 10
690.2470682472205
 20
573.2013272174904
 30
0.0
 10
689.7832705676599
 20
572.7375295379295
 30
0.0
 10
689.7832705676599
 20
572.1652149454057
 30
0.0
 10
689.7832705676599
 20
572.1652149454057
 30
0.0
 10
689.7832705676599
 20
515.7357728946773
 30
0.0
 10
689.7832705676599
 20
515.7357728946773
 30
0.0
 10
672.7933380447932
 20
516.2881441715681
 30
0.0
 10
659.1392255984181
 20
530.330796793457
 30
0.0
 10
659.1392255984181
 20
547.5254950748268
 30
0.0
 10
659.1392255984181
 20
565.0691551433441
 30
0.0
 10
673.3509032145494
 20
579.3419419144107
 30
0.0
 10
690.8192287182941
 20
579.3419419144107
 30
0.0
 10
708.2873384520088
 20
579.3419419144107
 30
0.0
 10
722.4986461766607
 20
565.0691551433441
 30
0.0
 10
722.4986461766607
 20
547.5254950748268
 30
0.0
 10
722.4986461766607
 20
530.330796793457
 30
0.0
 10
708.8447495003154
 20
516.2881441715681
 30
0.0
 10
691.855340990379
 20
515.7357728946773
 30
0.0
  0
SPLINE
  5
95A
330
955
100
AcDbEntity
  8
0
370
     0
100
AcDbSpline
210
0.0
220
0.0
230
1.0
 70
     9
 71
     3
 72
    14
 73
    10
 74
     0
 42
0.000000001
 43
0.0000000001
 40
0.0
 40
0.0
 40
0.0
 40
0.0
 40
1.0
 40
1.0
 40
1.0
 40
2.0
 40
2.0
 40
2.0
 40
3.0
 40
3.0
 40
3.0
 40
3.0
 10
691.855340990379
 20
523.9490590879722
 30
0.0
 10
691.855340990379
 20
523.9490590879722
 30
0.0
 10
691.855340990379
 20
571.1026246082068
 30
0.0
 10
691.855340990379
 20
571.1026246082068
 30
0.0
 10
704.3344315017621
 20
570.5558171156622
 30
0.0
 10
714.3201143703467
 20
560.1917506751203
 30
0.0
 10
714.3201143703467
 20
547.5254950748268
 30
0.0
 10
714.3201143703467
 20
534.8600717303634
 30
0.0
 10
704.3344315017621
 20
524.4957124590666
 30
0.0
 10
691.855340990379
 20
523.9490590879722
 30
0.0
  0
HATCH
  5
95B
330
955
100
AcDbEntity
  8
0
100
AcDbHatch
 10
0.0
 20
0.0
 30
0.0
210
0.0
220
0.0
230
1.0
  2
SOLID
 70
     1
 71
     0
 91
        3
 92
        1
 93
        1
 72
     4
 94
        3
 73
     0
 74
     0
 95
       17
 96
       13
 40
0.0
 40
0.0
 40
0.0
 40
0.0
 40
1.0
 40
1.0
 40
1.0
 40
2.0
 40
2.0
 40
2.0
 40
3.0
 40
3.0
 40
3.0
 40
4.0
 40
4.0
 40
4.0
 40
4.0
 10
690.8192287182941
 20
581.4140123371299
 10
672.2082467840622
 20
581.4140123371299
 10
657.0670164663937
 20
566.2118269859761
 10
657.0670164663937
 20
547.5254950748268
 10
657.0670164663937
 20
528.8400108316529
 10
672.2082467840622
 20
513.637363116149
 10
690.8192287182941
 20
513.637363116149
 10
709.4299948824962
 20
513.637363116149
 10
724.5707011872347
 20
528.8400108316529
 10
724.5707011872347
 20
547.5254950748268
 10
724.5707011872347
 20
566.2118269859761
 10
709.4299948824962
 20
581.4140123371299
 10
690.8192287182941
 20
581.4140123371299
 97
        0
 97
        0
 92
        1
 93
        1
 72
     4
 94
        3
 73
     0
 74
     0
 95
       32
 96
       28
 40
0.0
 40
0.0
 40
0.0
 40
0.0
 40
1.0
 40
1.0
 40
1.0
 40
2.0
 40
2.0
 40
2.0
 40
3.0
 40
3.0
 40
3.0
 40
4.0
 40
4.0
 40
4.0
 40
5.0
 40
5.0
 40
5.0
 40
6.0
 40
6.0
 40
6.0
 40
7.0
 40
7.0
 40
7.0
 40
8.0
 40
8.0
 40
8.0
 40
9.0
 40
9.0
 40
9.0
 40
9.0
 10
691.855340990379
 20
515.7357728946773
 10
691.855340990379
 20
515.7357728946773
 10
691.855340990379
 20
521.8768499559478
 10
691.855340990379
 20
521.8768499559478
 10
705.4773961751489
 20
522.4253065480077
 10
716.3921847930659
 20
533.7173998877313
 10
716.3921847930659
 20
547.5254950748268
 10
716.3921847930659
 20
561.6833072441749
 10
704.9202933697429
 20
573.2013272174904
 10
690.8192287182941
 20
573.2013272174904
 10
690.2470682472205
 20
573.2013272174904
 10
689.7832705676599
 20
572.7375295379295
 10
689.7832705676599
 20
572.1652149454057
 10
689.7832705676599
 20
572.1652149454057
 10
689.7832705676599
 20
515.7357728946773
 10
689.7832705676599
 20
515.7357728946773
 10
672.7933380447932
 20
516.2881441715681
 10
659.1392255984181
 20
530.330796793457
 10
659.1392255984181
 20
547.5254950748268
 10
659.1392255984181
 20
565.0691551433441
 10
673.3509032145494
 20
579.3419419144107
 10
690.8192287182941
 20
579.3419419144107
 10
708.2873384520088
 20
579.3419419144107
 10
722.4986461766607
 20
565.0691551433441
 10
722.4986461766607
 20
547.5254950748268
 10
722.4986461766607
 20
530.330796793457
 10
708.8447495003154
 20
516.2881441715681
 10
691.855340990379
 20
515.7357728946773
 97
        0
 97
        0
 92
        1
 93
        1
 72
     4
 94
        3
 73
     0
 74
     0
 95
       14
 96
       10
 40
0.0
 40
0.0
 40
0.0
 40
0.0
 40
1.0
 40
1.0
 40
1.0
 40
2.0
 40
2.0
 40
2.0
 40
3.0
 40
3.0
 40
3.0
 40
3.0
 10
691.855340990379
 20
523.9490590879722
 10
691.855340990379
 20
523.9490590879722
 10
691.855340990379
 20
571.1026246082068
 10
691.855340990379
 20
571.1026246082068
 10
704.3344315017621
 20
570.5558171156622
 10
714.3201143703467
 20
560.1917506751203
 10
714.3201143703467
 20
547.5254950748268
 10
714.3201143703467
 20
534.8600717303634
 10
704.3344315017621
 20
524.4957124590666
 10
691.855340990379
 20
523.9490590879722
 97
        0
 97
        0
 75
     2
 76
     1
 98
        0
450
        0
451
        0
460
0.0
461
0.0
452
        1
462
0.0
453
        0
470

  0
SPLINE
  5
95C
330
955
100
AcDbEntity
  8
0
370
     0
100
AcDbSpline
210
0.0
220
0.0
230
1.0
 70
     9
 71
     3
 72
   101
 73
    97
 74
     0
 42
0.000000001
 43
0.0000000001
 40
0.0
 40
0.0
 40
0.0
 40
0.0
 40
1.0
 40
1.0
 40
1.0
 40
2.0
 40
2.0
 40
2.0
 40
3.0
 40
3.0
 40
3.0
 40
4.0
 40
4.0
 40
4.0
 40
5.0
 40
5.0
 40
5.0
 40
6.0
 40
6.0
 40
6.0
 40
7.0
 40
7.0
 40
7.0
 40
8.0
 40
8.0
 40
8.0
 40
9.0
 40
9.0
 40
9.0
 40
10.0
 40
10.0
 40
10.0
 40
11.0
 40
11.0
 40
11.0
 40
12.0
 40
12.0
 40
12.0
 40
13.0
 40
13.0
 40
13.0
 40
14.0
 40
14.0
 40
14.0
 40
15.0
 40
15.0
 40
15.0
 40
16.0
 40
16.0
 40
16.0
 40
17.0
 40
17.0
 40
17.0
 40
18.0
 40
18.0
 40
18.0
 40
19.0
 40
19.0
 40
19.0
 40
20.0
 40
20.0
 40
20.0
 40
21.0
 40
21.0
 40
21.0
 40
22.0
 40
22.0
 40
22.0
 40
23.0
 40
23.0
 40
23.0
 40
24.0
 40
24.0
 40
24.0
 40
25.0
 40
25.0
 40
25.0
 40
26.0
 40
26.0
 40
26.0
 40
27.0
 40
27.0
 40
27.0
 40
28.0
 40
28.0
 40
28.0
 40
29.0
 40
29.0
 40
29.0
 40
30.0
 40
30.0
 40
30.0
 40
31.0
 40
31.0
 40
31.0
 40
32.0
 40
32.0
 40
32.0
 40
32.0
 10
748.3802088781049
 20
552.7137779198961
 30
0.0
 10
748.3802088781049
 20
561.6095447181926
 30
0.0
 10
748.3802088781049
 20
563.2062275283092
 30
0.0
 10
748.2661220159382
 20
565.0310100844627
 30
0.0
 10
748.1520362326216
 20
566.9698579257802
 30
0.0
 10
747.6958433677692
 20
567.8822569099297
 30
0.0
 10
745.8141083121878
 20
568.281400641205
 30
0.0
 10
745.357908820113
 20
568.3954813385136
 30
0.0
 10
744.3884848994541
 20
568.4524600385881
 30
0.0
 10
743.8752450587251
 20
568.4524600385881
 30
0.0
 10
743.6471453126877
 20
568.4524600385881
 30
0.0
 10
743.4190455666506
 20
568.5665407358966
 30
0.0
 10
743.4190455666506
 20
568.7946404819339
 30
0.0
 10
743.4190455666506
 20
569.1367438645547
 30
0.0
 10
743.7041856613423
 20
569.2508245618637
 30
0.0
 10
744.3314291386549
 20
569.2509016225886
 30
0.0
 10
746.8975420342882
 20
569.2509016225886
 30
0.0
 10
750.3189858235551
 20
569.0798576373508
 30
0.0
 10
750.7751853156299
 20
569.0798576373508
 30
0.0
 10
752.0297493309803
 20
569.0798576373508
 30
0.0
 10
755.3371185877968
 20
569.2509016225886
 30
0.0
 10
757.9602656672258
 20
569.2508245618637
 30
0.0
 10
765.0882435923461
 20
569.2508245618637
 30
0.0
 10
767.654350258296
 20
566.8557772284716
 30
0.0
 10
768.5667338072517
 20
566.0004340051216
 30
0.0
 10
769.8212977909093
 20
564.8029103384255
 30
0.0
 10
771.4179034999667
 20
562.2368036076505
 30
0.0
 10
771.4179034999667
 20
559.2145744455256
 30
0.0
 10
771.4179034999667
 20
551.1170951097799
 30
0.0
 10
765.4873873135382
 20
545.6428553263338
 30
0.0
 10
757.389985477843
 20
545.6428553263338
 30
0.0
 10
757.1048453831512
 20
545.6428553263338
 30
0.0
 10
756.4776019058385
 20
545.6428553263338
 30
0.0
 10
756.1924618111467
 20
545.6997415535379
 30
0.0
 10
755.9073217164549
 20
545.6997415535379
 30
0.0
 10
755.5652183338341
 20
545.8138376629916
 30
0.0
 10
755.5652183338341
 20
546.0989006969583
 30
0.0
 10
755.5652183338341
 20
546.5552388983383
 30
0.0
 10
755.9073217164549
 20
546.6121405376874
 30
0.0
 10
757.1048453831512
 20
546.6121405376874
 30
0.0
 10
762.6362179881217
 20
546.6121405376874
 30
0.0
 10
766.9700510374707
 20
550.6609110298503
 30
0.0
 10
766.9700510374707
 20
555.9071281279841
 30
0.0
 10
766.9700510374707
 20
557.7889510327922
 30
0.0
 10
766.7990070565537
 20
561.6095447181926
 30
0.0
 10
763.7767009100537
 20
564.6888912896967
 30
0.0
 10
760.7543950833137
 20
567.7681608004758
 30
0.0
 10
757.2759047805342
 20
567.5400610544386
 30
0.0
 10
755.9643620651095
 20
567.5400610544386
 30
0.0
 10
754.9949381444506
 20
567.5400610544386
 30
0.0
 10
754.0255912845171
 20
567.4260574178547
 30
0.0
 10
753.5123514437881
 20
567.1979576718174
 30
0.0
 10
753.1701710004417
 20
567.0838769745089
 30
0.0
 10
753.0561519517134
 20
566.6847178310884
 30
0.0
 10
753.0561519517134
 20
566.1145147024301
 30
0.0
 10
753.0561519517134
 20
566.1145147024301
 30
0.0
 10
753.0561519517134
 20
542.6775278035584
 30
0.0
 10
753.0561519517134
 20
542.6775278035584
 30
0.0
 10
753.0561519517134
 20
537.203195547242
 30
0.0
 10
753.0561519517134
 20
532.6983026237297
 30
0.0
 10
753.341292046405
 20
530.3032552903373
 30
0.0
 10
753.5123514437881
 20
528.6496091922916
 30
0.0
 10
753.8545318871339
 20
527.3951222376663
 30
0.0
 10
755.5652183338341
 20
527.1669454309042
 30
0.0
 10
756.3635212085298
 20
527.0528647335952
 30
0.0
 10
757.6180852238802
 20
526.9387686241417
 30
0.0
 10
758.1313250646092
 20
526.9387686241417
 30
0.0
 10
758.4734284472299
 20
526.9387686241417
 30
0.0
 10
758.587524556684
 20
526.7678016996288
 30
0.0
 10
758.587524556684
 20
526.5968193629706
 30
0.0
 10
758.587524556684
 20
526.3116022075537
 30
0.0
 10
758.3023844619922
 20
526.1404657494457
 30
0.0
 10
757.6751255725345
 20
526.1404657494457
 30
0.0
 10
754.538815713101
 20
526.1404657494457
 30
0.0
 10
750.9463217737379
 20
526.3116022075537
 30
0.0
 10
750.6611816790463
 20
526.3116022075537
 30
0.0
 10
750.4901222816632
 20
526.3116022075537
 30
0.0
 10
746.8975420342882
 20
526.1404657494457
 30
0.0
 10
745.1868494227301
 20
526.1404657494457
 30
0.0
 10
744.5595288846922
 20
526.1404657494457
 30
0.0
 10
744.2744658507257
 20
526.2545618588996
 30
0.0
 10
744.2744658507257
 20
526.5968193629706
 30
0.0
 10
744.2744658507257
 20
526.7678016996288
 30
0.0
 10
744.3884848994541
 20
526.9387686241417
 30
0.0
 10
744.7306653428004
 20
526.9387686241417
 30
0.0
 10
745.2438281228044
 20
526.9387686241417
 30
0.0
 10
745.9281119487711
 20
527.0528647335952
 30
0.0
 10
746.4413517895004
 20
527.1669454309042
 30
0.0
 10
747.581832025113
 20
527.3951222376663
 30
0.0
 10
747.8669721198047
 20
528.6496091922916
 30
0.0
 10
748.0950684751702
 20
530.3032552903373
 30
0.0
 10
748.3802088781049
 20
532.6983026237297
 30
0.0
 10
748.3802088781049
 20
537.203195547242
 30
0.0
 10
748.3802088781049
 20
542.6775278035584
 30
0.0
 10
748.3802088781049
 20
542.6775278035584
 30
0.0
 10
748.3802088781049
 20
552.7137779198961
 30
0.0
 10
748.3802088781049
 20
552.7137779198961
 30
0.0
  0
HATCH
  5
95D
330
955
100
AcDbEntity
  8
0
100
AcDbHatch
 10
0.0
 20
0.0
 30
0.0
210
0.0
220
0.0
230
1.0
  2
SOLID
 70
     1
 71
     0
 91
        1
 92
        1
 93
        1
 72
     4
 94
        3
 73
     0
 74
     0
 95
      101
 96
       97
 40
0.0
 40
0.0
 40
0.0
 40
0.0
 40
1.0
 40
1.0
 40
1.0
 40
2.0
 40
2.0
 40
2.0
 40
3.0
 40
3.0
 40
3.0
 40
4.0
 40
4.0
 40
4.0
 40
5.0
 40
5.0
 40
5.0
 40
6.0
 40
6.0
 40
6.0
 40
7.0
 40
7.0
 40
7.0
 40
8.0
 40
8.0
 40
8.0
 40
9.0
 40
9.0
 40
9.0
 40
10.0
 40
10.0
 40
10.0
 40
11.0
 40
11.0
 40
11.0
 40
12.0
 40
12.0
 40
12.0
 40
13.0
 40
13.0
 40
13.0
 40
14.0
 40
14.0
 40
14.0
 40
15.0
 40
15.0
 40
15.0
 40
16.0
 40
16.0
 40
16.0
 40
17.0
 40
17.0
 40
17.0
 40
18.0
 40
18.0
 40
18.0
 40
19.0
 40
19.0
 40
19.0
 40
20.0
 40
20.0
 40
20.0
 40
21.0
 40
21.0
 40
21.0
 40
22.0
 40
22.0
 40
22.0
 40
23.0
 40
23.0
 40
23.0
 40
24.0
 40
24.0
 40
24.0
 40
25.0
 40
25.0
 40
25.0
 40
26.0
 40
26.0
 40
26.0
 40
27.0
 40
27.0
 40
27.0
 40
28.0
 40
28.0
 40
28.0
 40
29.0
 40
29.0
 40
29.0
 40
30.0
 40
30.0
 40
30.0
 40
31.0
 40
31.0
 40
31.0
 40
32.0
 40
32.0
 40
32.0
 40
32.0
 10
748.3802088781049
 20
552.7137779198961
 10
748.3802088781049
 20
561.6095447181926
 10
748.3802088781049
 20
563.2062275283092
 10
748.2661220159382
 20
565.0310100844627
 10
748.1520362326216
 20
566.9698579257802
 10
747.6958433677692
 20
567.8822569099297
 10
745.8141083121878
 20
568.281400641205
 10
745.357908820113
 20
568.3954813385136
 10
744.3884848994541
 20
568.4524600385881
 10
743.8752450587251
 20
568.4524600385881
 10
743.6471453126877
 20
568.4524600385881
 10
743.4190455666506
 20
568.5665407358966
 10
743.4190455666506
 20
568.7946404819339
 10
743.4190455666506
 20
569.1367438645547
 10
743.7041856613423
 20
569.2508245618637
 10
744.3314291386549
 20
569.2509016225886
 10
746.8975420342882
 20
569.2509016225886
 10
750.3189858235551
 20
569.0798576373508
 10
750.7751853156299
 20
569.0798576373508
 10
752.0297493309803
 20
569.0798576373508
 10
755.3371185877968
 20
569.2509016225886
 10
757.9602656672258
 20
569.2508245618637
 10
765.0882435923461
 20
569.2508245618637
 10
767.654350258296
 20
566.8557772284716
 10
768.5667338072517
 20
566.0004340051216
 10
769.8212977909093
 20
564.8029103384255
 10
771.4179034999667
 20
562.2368036076505
 10
771.4179034999667
 20
559.2145744455256
 10
771.4179034999667
 20
551.1170951097799
 10
765.4873873135382
 20
545.6428553263338
 10
757.389985477843
 20
545.6428553263338
 10
757.1048453831512
 20
545.6428553263338
 10
756.4776019058385
 20
545.6428553263338
 10
756.1924618111467
 20
545.6997415535379
 10
755.9073217164549
 20
545.6997415535379
 10
755.5652183338341
 20
545.8138376629916
 10
755.5652183338341
 20
546.0989006969583
 10
755.5652183338341
 20
546.5552388983383
 10
755.9073217164549
 20
546.6121405376874
 10
757.1048453831512
 20
546.6121405376874
 10
762.6362179881217
 20
546.6121405376874
 10
766.9700510374707
 20
550.6609110298503
 10
766.9700510374707
 20
555.9071281279841
 10
766.9700510374707
 20
557.7889510327922
 10
766.7990070565537
 20
561.6095447181926
 10
763.7767009100537
 20
564.6888912896967
 10
760.7543950833137
 20
567.7681608004758
 10
757.2759047805342
 20
567.5400610544386
 10
755.9643620651095
 20
567.5400610544386
 10
754.9949381444506
 20
567.5400610544386
 10
754.0255912845171
 20
567.4260574178547
 10
753.5123514437881
 20
567.1979576718174
 10
753.1701710004417
 20
567.0838769745089
 10
753.0561519517134
 20
566.6847178310884
 10
753.0561519517134
 20
566.1145147024301
 10
753.0561519517134
 20
566.1145147024301
 10
753.0561519517134
 20
542.6775278035584
 10
753.0561519517134
 20
542.6775278035584
 10
753.0561519517134
 20
537.203195547242
 10
753.0561519517134
 20
532.6983026237297
 10
753.341292046405
 20
530.3032552903373
 10
753.5123514437881
 20
528.6496091922916
 10
753.8545318871339
 20
527.3951222376663
 10
755.5652183338341
 20
527.1669454309042
 10
756.3635212085298
 20
527.0528647335952
 10
757.6180852238802
 20
526.9387686241417
 10
758.1313250646092
 20
526.9387686241417
 10
758.4734284472299
 20
526.9387686241417
 10
758.587524556684
 20
526.7678016996288
 10
758.587524556684
 20
526.5968193629706
 10
758.587524556684
 20
526.3116022075537
 10
758.3023844619922
 20
526.1404657494457
 10
757.6751255725345
 20
526.1404657494457
 10
754.538815713101
 20
526.1404657494457
 10
750.9463217737379
 20
526.3116022075537
 10
750.6611816790463
 20
526.3116022075537
 10
750.4901222816632
 20
526.3116022075537
 10
746.8975420342882
 20
526.1404657494457
 10
745.1868494227301
 20
526.1404657494457
 10
744.5595288846922
 20
526.1404657494457
 10
744.2744658507257
 20
526.2545618588996
 10
744.2744658507257
 20
526.5968193629706
 10
744.2744658507257
 20
526.7678016996288
 10
744.3884848994541
 20
526.9387686241417
 10
744.7306653428004
 20
526.9387686241417
 10
745.2438281228044
 20
526.9387686241417
 10
745.9281119487711
 20
527.0528647335952
 10
746.4413517895004
 20
527.1669454309042
 10
747.581832025113
 20
527.3951222376663
 10
747.8669721198047
 20
528.6496091922916
 10
748.0950684751702
 20
530.3032552903373
 10
748.3802088781049
 20
532.6983026237297
 10
748.3802088781049
 20
537.203195547242
 10
748.3802088781049
 20
542.6775278035584
 10
748.3802088781049
 20
542.6775278035584
 10
748.3802088781049
 20
552.7137779198961
 10
748.3802088781049
 20
552.7137779198961
 97
        0
 97
        0
 75
     2
 76
     1
 98
        0
450
        0
451
        0
460
0.0
461
0.0
452
        1
462
0.0
453
        0
470

  0
SPLINE
  5
95E
330
955
100
AcDbEntity
  8
0
370
     0
100
AcDbSpline
210
0.0
220
0.0
230
1.0
 70
     9
 71
     3
 72
   158
 73
   154
 74
     0
 42
0.000000001
 43
0.0000000001
 40
0.0
 40
0.0
 40
0.0
 40
0.0
 40
1.0
 40
1.0
 40
1.0
 40
2.0
 40
2.0
 40
2.0
 40
3.0
 40
3.0
 40
3.0
 40
4.0
 40
4.0
 40
4.0
 40
5.0
 40
5.0
 40
5.0
 40
6.0
 40
6.0
 40
6.0
 40
7.0
 40
7.0
 40
7.0
 40
8.0
 40
8.0
 40
8.0
 40
9.0
 40
9.0
 40
9.0
 40
10.0
 40
10.0
 40
10.0
 40
11.0
 40
11.0
 40
11.0
 40
12.0
 40
12.0
 40
12.0
 40
13.0
 40
13.0
 40
13.0
 40
14.0
 40
14.0
 40
14.0
 40
15.0
 40
15.0
 40
15.0
 40
16.0
 40
16.0
 40
16.0
 40
17.0
 40
17.0
 40
17.0
 40
18.0
 40
18.0
 40
18.0
 40
19.0
 40
19.0
 40
19.0
 40
20.0
 40
20.0
 40
20.0
 40
21.0
 40
21.0
 40
21.0
 40
22.0
 40
22.0
 40
22.0
 40
23.0
 40
23.0
 40
23.0
 40
24.0
 40
24.0
 40
24.0
 40
25.0
 40
25.0
 40
25.0
 40
26.0
 40
26.0
 40
26.0
 40
27.0
 40
27.0
 40
27.0
 40
28.0
 40
28.0
 40
28.0
 40
29.0
 40
29.0
 40
29.0
 40
30.0
 40
30.0
 40
30.0
 40
31.0
 40
31.0
 40
31.0
 40
32.0
 40
32.0
 40
32.0
 40
33.0
 40
33.0
 40
33.0
 40
34.0
 40
34.0
 40
34.0
 40
35.0
 40
35.0
 40
35.0
 40
36.0
 40
36.0
 40
36.0
 40
37.0
 40
37.0
 40
37.0
 40
38.0
 40
38.0
 40
38.0
 40
39.0
 40
39.0
 40
39.0
 40
40.0
 40
40.0
 40
40.0
 40
41.0
 40
41.0
 40
41.0
 40
42.0
 40
42.0
 40
42.0
 40
43.0
 40
43.0
 40
43.0
 40
44.0
 40
44.0
 40
44.0
 40
45.0
 40
45.0
 40
45.0
 40
46.0
 40
46.0
 40
46.0
 40
47.0
 40
47.0
 40
47.0
 40
48.0
 40
48.0
 40
48.0
 40
49.0
 40
49.0
 40
49.0
 40
50.0
 40
50.0
 40
50.0
 40
51.0
 40
51.0
 40
51.0
 40
51.0
 10
785.1795778954573
 20
548.7791651857673
 30
0.0
 10
785.1795778954573
 20
556.3062872714043
 30
0.0
 10
785.1795778954573
 20
557.6748703354834
 30
0.0
 10
785.0655579128174
 20
559.2145744455256
 30
0.0
 10
784.9514781494201
 20
560.8682205435711
 30
0.0
 10
784.6663371309022
 20
561.6666004789919
 30
0.0
 10
783.0126910746312
 20
561.8946848128842
 30
0.0
 10
782.6135319412942
 20
561.9517405736838
 30
0.0
 10
781.7581270909736
 20
562.0087809223381
 30
0.0
 10
781.3019276104236
 20
562.0087809223381
 30
0.0
 10
781.1308682173619
 20
562.0087809223381
 30
0.0
 10
780.9027684770867
 20
562.2368036076505
 30
0.0
 10
780.9027684770867
 20
562.4079246536132
 30
0.0
 10
780.9027684770867
 20
562.6929876875798
 30
0.0
 10
781.1308682173619
 20
562.8070837970336
 30
0.0
 10
781.7011483923387
 20
562.8070837970336
 30
0.0
 10
783.9821149708001
 20
562.8070837970336
 30
0.0
 10
787.2324437968518
 20
562.6929876875798
 30
0.0
 10
787.5175838843404
 20
562.6929876875798
 30
0.0
 10
787.8596872583192
 20
562.6929876875798
 30
0.0
 10
798.3521366016702
 20
562.6360243996506
 30
0.0
 10
799.4926969516241
 20
562.6929876875798
 30
0.0
 10
800.4620591992146
 20
562.7500280362345
 30
0.0
 10
801.3744427481702
 20
562.9211644943421
 30
0.0
 10
801.7736635300854
 20
562.9781277822717
 30
0.0
 10
802.0016862096374
 20
563.0351681309257
 30
0.0
 10
802.2298630106357
 20
563.2062275283092
 30
0.0
 10
802.4578856901875
 20
563.2062275283092
 30
0.0
 10
802.6290067318276
 20
563.2062275283092
 30
0.0
 10
802.6860470790412
 20
562.9781277822717
 30
0.0
 10
802.6860470790412
 20
562.7500280362345
 30
0.0
 10
802.6860470790412
 20
562.4079246536132
 30
0.0
 10
802.4009069915527
 20
561.8376444642299
 30
0.0
 10
802.2868262971256
 20
560.4690614001509
 30
0.0
 10
802.2298630106357
 20
560.0128773202214
 30
0.0
 10
802.1157669040642
 20
557.8459913814466
 30
0.0
 10
802.0016862096374
 20
557.2757111920632
 30
0.0
 10
801.9447229231472
 20
557.0476114460258
 30
0.0
 10
801.7736635300854
 20
556.7624713513342
 30
0.0
 10
801.5454867290872
 20
556.7624713513342
 30
0.0
 10
801.260423702322
 20
556.7624713513342
 30
0.0
 10
801.1463430078952
 20
556.9906481580964
 30
0.0
 10
801.1463430078952
 20
557.3898073015168
 30
0.0
 10
801.1463430078952
 20
557.7319106841379
 30
0.0
 10
801.0893026606819
 20
558.5302906195586
 30
0.0
 10
800.8612813140747
 20
559.1004937482169
 30
0.0
 10
800.519099546428
 20
559.8988582714926
 30
0.0
 10
800.0058597186646
 20
560.2409770662586
 30
0.0
 10
797.2686936596533
 20
560.5831575096046
 30
0.0
 10
796.4133504579107
 20
560.6971611461882
 30
0.0
 10
790.5968533173306
 20
560.7542014948427
 30
0.0
 10
790.0266502030769
 20
560.7542014948427
 30
0.0
 10
789.7985504628018
 20
560.7542014948427
 30
0.0
 10
789.7415101155884
 20
560.5831575096046
 30
0.0
 10
789.7415101155884
 20
560.2409770662586
 30
0.0
 10
789.7415101155884
 20
560.2409770662586
 30
0.0
 10
789.7415101155884
 20
547.0684787390671
 30
0.0
 10
789.7415101155884
 20
547.0684787390671
 30
0.0
 10
789.7415101155884
 20
546.7262212349961
 30
0.0
 10
789.7415101155884
 20
546.5552388983383
 30
0.0
 10
790.0266502030769
 20
546.5552388983383
 30
0.0
 10
790.653893664544
 20
546.5552388983383
 30
0.0
 10
797.2686936596533
 20
546.5552388983383
 30
0.0
 10
798.4091769488838
 20
546.6693350077918
 30
0.0
 10
799.6067005853277
 20
546.7832615836505
 30
0.0
 10
800.3480401533662
 20
546.8403019323049
 30
0.0
 10
800.8612813140747
 20
547.3535417730337
 30
0.0
 10
801.2033833551086
 20
547.6956451556548
 30
0.0
 10
801.4314830953836
 20
547.9807852503463
 30
0.0
 10
801.6025424884452
 20
547.9807852503463
 30
0.0
 10
801.7736635300854
 20
547.9807852503463
 30
0.0
 10
801.8876825759337
 20
547.8667816137629
 30
0.0
 10
801.8876825759337
 20
547.5816415190711
 30
0.0
 10
801.8876825759337
 20
547.2965014243794
 30
0.0
 10
801.6025424884452
 20
546.4981985496838
 30
0.0
 10
801.4885234425971
 20
544.9014540909875
 30
0.0
 10
801.3744427481702
 20
543.9321688796337
 30
0.0
 10
801.260423702322
 20
542.1073863234799
 30
0.0
 10
801.260423702322
 20
541.7651288194089
 30
0.0
 10
801.260423702322
 20
541.3659850881336
 30
0.0
 10
801.1463430078952
 20
540.8527452474046
 30
0.0
 10
800.8042396339165
 20
540.8527452474046
 30
0.0
 10
800.5761398936412
 20
540.8527452474046
 30
0.0
 10
800.4620591992146
 20
541.0238817055126
 30
0.0
 10
800.4620591992146
 20
541.3089447394792
 30
0.0
 10
800.4620591992146
 20
541.7651288194089
 30
0.0
 10
800.4620591992146
 20
542.278368660138
 30
0.0
 10
800.2339594589395
 20
542.9056891981757
 30
0.0
 10
800.0629000658776
 20
543.5899113755628
 30
0.0
 10
799.6067005853277
 20
544.1601915649458
 30
0.0
 10
797.6679298537129
 20
544.3882142502582
 30
0.0
 10
796.2993468242071
 20
544.5593352962212
 30
0.0
 10
790.9390337520325
 20
544.6163756448757
 30
0.0
 10
790.0836905502902
 20
544.6163756448757
 30
0.0
 10
789.7985504628018
 20
544.6163756448757
 30
0.0
 10
789.7415101155884
 20
544.4452545989125
 30
0.0
 10
789.7415101155884
 20
544.2741181408043
 30
0.0
 10
789.7415101155884
 20
544.2741181408043
 30
0.0
 10
789.7415101155884
 20
540.2254247093667
 30
0.0
 10
789.7415101155884
 20
540.2254247093667
 30
0.0
 10
789.7415101155884
 20
538.571778611321
 30
0.0
 10
789.6844697683749
 20
532.9263253090418
 30
0.0
 10
789.7415101155884
 20
531.9570555098331
 30
0.0
 10
789.8555908100153
 20
528.7066495409461
 30
0.0
 10
790.7679743589708
 20
528.0793290029081
 30
0.0
 10
795.7290666492301
 20
528.0793290029081
 30
0.0
 10
797.040593919378
 20
528.0793290029081
 30
0.0
 10
799.4356579013413
 20
528.0793290029081
 30
0.0
 10
800.7471838745582
 20
528.5925688436374
 30
0.0
 10
802.0587265568506
 20
529.1628490330207
 30
0.0
 10
802.7430257776758
 20
530.0181922563708
 30
0.0
 10
803.0282289014294
 20
531.9570555098331
 30
0.0
 10
803.1422465595911
 20
532.5271815777666
 30
0.0
 10
803.2563286474667
 20
532.6983026237297
 30
0.0
 10
803.5413902807832
 20
532.6983026237297
 30
0.0
 10
803.8265303682717
 20
532.6983026237297
 30
0.0
 10
803.8835707154849
 20
532.2991588924543
 30
0.0
 10
803.8835090669067
 20
531.9570555098331
 30
0.0
 10
803.8835090669067
 20
531.614798005762
 30
0.0
 10
803.48434993357
 20
528.3075058096708
 30
0.0
 10
803.1992098460815
 20
527.2810261282127
 30
0.0
 10
802.8571064721027
 20
526.0263850521372
 30
0.0
 10
802.3438666443393
 20
526.0263850521372
 30
0.0
 10
800.4050818219997
 20
526.0263850521372
 30
0.0
 10
796.6414501981859
 20
526.0263850521372
 30
0.0
 10
793.7332401582573
 20
526.1404657494457
 30
0.0
 10
791.6803579079265
 20
526.1975215102451
 30
0.0
 10
789.5704507225267
 20
526.3116022075537
 30
0.0
 10
788.2589080402342
 20
526.3116022075537
 30
0.0
 10
787.5175838843404
 20
526.3116022075537
 30
0.0
 10
787.4034877777693
 20
526.3116022075537
 30
0.0
 10
786.434140942323
 20
526.3116022075537
 30
0.0
 10
785.3506980003059
 20
526.2545618588996
 30
0.0
 10
784.3812741041367
 20
526.1975215102451
 30
0.0
 10
783.2407908149061
 20
526.1404657494457
 30
0.0
 10
782.4424108996542
 20
526.1404657494457
 30
0.0
 10
781.9291710718905
 20
526.1404657494457
 30
0.0
 10
781.6441080451252
 20
526.2545618588996
 30
0.0
 10
781.6441080451252
 20
526.5396248928664
 30
0.0
 10
781.6441080451252
 20
526.7107459388292
 30
0.0
 10
781.7581270909736
 20
526.9387686241417
 30
0.0
 10
782.0432671784621
 20
526.9387686241417
 30
0.0
 10
782.4994512468675
 20
526.9387686241417
 30
0.0
 10
783.1266947083348
 20
527.1099050822497
 30
0.0
 10
783.5828941888848
 20
527.1669454309042
 30
0.0
 10
784.5523180850539
 20
527.3380664768668
 30
0.0
 10
784.6663371309022
 20
528.3075058096708
 30
0.0
 10
784.8945139319002
 20
529.7331292224042
 30
0.0
 10
785.1795778954573
 20
531.7288787030705
 30
0.0
 10
785.1795778954573
 20
535.5495494491964
 30
0.0
 10
785.1795778954573
 20
540.2254247093667
 30
0.0
 10
785.1795778954573
 20
540.2254247093667
 30
0.0
 10
785.1795778954573
 20
548.7791651857673
 30
0.0
 10
785.1795778954573
 20
548.7791651857673
 30
0.0
  0
HATCH
  5
95F
330
955
100
AcDbEntity
  8
0
100
AcDbHatch
 10
0.0
 20
0.0
 30
0.0
210
0.0
220
0.0
230
1.0
  2
SOLID
 70
     1
 71
     0
 91
        1
 92
        1
 93
        1
 72
     4
 94
        3
 73
     0
 74
     0
 95
      158
 96
      154
 40
0.0
 40
0.0
 40
0.0
 40
0.0
 40
1.0
 40
1.0
 40
1.0
 40
2.0
 40
2.0
 40
2.0
 40
3.0
 40
3.0
 40
3.0
 40
4.0
 40
4.0
 40
4.0
 40
5.0
 40
5.0
 40
5.0
 40
6.0
 40
6.0
 40
6.0
 40
7.0
 40
7.0
 40
7.0
 40
8.0
 40
8.0
 40
8.0
 40
9.0
 40
9.0
 40
9.0
 40
10.0
 40
10.0
 40
10.0
 40
11.0
 40
11.0
 40
11.0
 40
12.0
 40
12.0
 40
12.0
 40
13.0
 40
13.0
 40
13.0
 40
14.0
 40
14.0
 40
14.0
 40
15.0
 40
15.0
 40
15.0
 40
16.0
 40
16.0
 40
16.0
 40
17.0
 40
17.0
 40
17.0
 40
18.0
 40
18.0
 40
18.0
 40
19.0
 40
19.0
 40
19.0
 40
20.0
 40
20.0
 40
20.0
 40
21.0
 40
21.0
 40
21.0
 40
22.0
 40
22.0
 40
22.0
 40
23.0
 40
23.0
 40
23.0
 40
24.0
 40
24.0
 40
24.0
 40
25.0
 40
25.0
 40
25.0
 40
26.0
 40
26.0
 40
26.0
 40
27.0
 40
27.0
 40
27.0
 40
28.0
 40
28.0
 40
28.0
 40
29.0
 40
29.0
 40
29.0
 40
30.0
 40
30.0
 40
30.0
 40
31.0
 40
31.0
 40
31.0
 40
32.0
 40
32.0
 40
32.0
 40
33.0
 40
33.0
 40
33.0
 40
34.0
 40
34.0
 40
34.0
 40
35.0
 40
35.0
 40
35.0
 40
36.0
 40
36.0
 40
36.0
 40
37.0
 40
37.0
 40
37.0
 40
38.0
 40
38.0
 40
38.0
 40
39.0
 40
39.0
 40
39.0
 40
40.0
 40
40.0
 40
40.0
 40
41.0
 40
41.0
 40
41.0
 40
42.0
 40
42.0
 40
42.0
 40
43.0
 40
43.0
 40
43.0
 40
44.0
 40
44.0
 40
44.0
 40
45.0
 40
45.0
 40
45.0
 40
46.0
 40
46.0
 40
46.0
 40
47.0
 40
47.0
 40
47.0
 40
48.0
 40
48.0
 40
48.0
 40
49.0
 40
49.0
 40
49.0
 40
50.0
 40
50.0
 40
50.0
 40
51.0
 40
51.0
 40
51.0
 40
51.0
 10
785.1795778954573
 20
548.7791651857673
 10
785.1795778954573
 20
556.3062872714043
 10
785.1795778954573
 20
557.6748703354834
 10
785.0655579128174
 20
559.2145744455256
 10
784.9514781494201
 20
560.8682205435711
 10
784.6663371309022
 20
561.6666004789919
 10
783.0126910746312
 20
561.8946848128842
 10
782.6135319412942
 20
561.9517405736838
 10
781.7581270909736
 20
562.0087809223381
 10
781.3019276104236
 20
562.0087809223381
 10
781.1308682173619
 20
562.0087809223381
 10
780.9027684770867
 20
562.2368036076505
 10
780.9027684770867
 20
562.4079246536132
 10
780.9027684770867
 20
562.6929876875798
 10
781.1308682173619
 20
562.8070837970336
 10
781.7011483923387
 20
562.8070837970336
 10
783.9821149708001
 20
562.8070837970336
 10
787.2324437968518
 20
562.6929876875798
 10
787.5175838843404
 20
562.6929876875798
 10
787.8596872583192
 20
562.6929876875798
 10
798.3521366016702
 20
562.6360243996506
 10
799.4926969516241
 20
562.6929876875798
 10
800.4620591992146
 20
562.7500280362345
 10
801.3744427481702
 20
562.9211644943421
 10
801.7736635300854
 20
562.9781277822717
 10
802.0016862096374
 20
563.0351681309257
 10
802.2298630106357
 20
563.2062275283092
 10
802.4578856901875
 20
563.2062275283092
 10
802.6290067318276
 20
563.2062275283092
 10
802.6860470790412
 20
562.9781277822717
 10
802.6860470790412
 20
562.7500280362345
 10
802.6860470790412
 20
562.4079246536132
 10
802.4009069915527
 20
561.8376444642299
 10
802.2868262971256
 20
560.4690614001509
 10
802.2298630106357
 20
560.0128773202214
 10
802.1157669040642
 20
557.8459913814466
 10
802.0016862096374
 20
557.2757111920632
 10
801.9447229231472
 20
557.0476114460258
 10
801.7736635300854
 20
556.7624713513342
 10
801.5454867290872
 20
556.7624713513342
 10
801.260423702322
 20
556.7624713513342
 10
801.1463430078952
 20
556.9906481580964
 10
801.1463430078952
 20
557.3898073015168
 10
801.1463430078952
 20
557.7319106841379
 10
801.0893026606819
 20
558.5302906195586
 10
800.8612813140747
 20
559.1004937482169
 10
800.519099546428
 20
559.8988582714926
 10
800.0058597186646
 20
560.2409770662586
 10
797.2686936596533
 20
560.5831575096046
 10
796.4133504579107
 20
560.6971611461882
 10
790.5968533173306
 20
560.7542014948427
 10
790.0266502030769
 20
560.7542014948427
 10
789.7985504628018
 20
560.7542014948427
 10
789.7415101155884
 20
560.5831575096046
 10
789.7415101155884
 20
560.2409770662586
 10
789.7415101155884
 20
560.2409770662586
 10
789.7415101155884
 20
547.0684787390671
 10
789.7415101155884
 20
547.0684787390671
 10
789.7415101155884
 20
546.7262212349961
 10
789.7415101155884
 20
546.5552388983383
 10
790.0266502030769
 20
546.5552388983383
 10
790.653893664544
 20
546.5552388983383
 10
797.2686936596533
 20
546.5552388983383
 10
798.4091769488838
 20
546.6693350077918
 10
799.6067005853277
 20
546.7832615836505
 10
800.3480401533662
 20
546.8403019323049
 10
800.8612813140747
 20
547.3535417730337
 10
801.2033833551086
 20
547.6956451556548
 10
801.4314830953836
 20
547.9807852503463
 10
801.6025424884452
 20
547.9807852503463
 10
801.7736635300854
 20
547.9807852503463
 10
801.8876825759337
 20
547.8667816137629
 10
801.8876825759337
 20
547.5816415190711
 10
801.8876825759337
 20
547.2965014243794
 10
801.6025424884452
 20
546.4981985496838
 10
801.4885234425971
 20
544.9014540909875
 10
801.3744427481702
 20
543.9321688796337
 10
801.260423702322
 20
542.1073863234799
 10
801.260423702322
 20
541.7651288194089
 10
801.260423702322
 20
541.3659850881336
 10
801.1463430078952
 20
540.8527452474046
 10
800.8042396339165
 20
540.8527452474046
 10
800.5761398936412
 20
540.8527452474046
 10
800.4620591992146
 20
541.0238817055126
 10
800.4620591992146
 20
541.3089447394792
 10
800.4620591992146
 20
541.7651288194089
 10
800.4620591992146
 20
542.278368660138
 10
800.2339594589395
 20
542.9056891981757
 10
800.0629000658776
 20
543.5899113755628
 10
799.6067005853277
 20
544.1601915649458
 10
797.6679298537129
 20
544.3882142502582
 10
796.2993468242071
 20
544.5593352962212
 10
790.9390337520325
 20
544.6163756448757
 10
790.0836905502902
 20
544.6163756448757
 10
789.7985504628018
 20
544.6163756448757
 10
789.7415101155884
 20
544.4452545989125
 10
789.7415101155884
 20
544.2741181408043
 10
789.7415101155884
 20
544.2741181408043
 10
789.7415101155884
 20
540.2254247093667
 10
789.7415101155884
 20
540.2254247093667
 10
789.7415101155884
 20
538.571778611321
 10
789.6844697683749
 20
532.9263253090418
 10
789.7415101155884
 20
531.9570555098331
 10
789.8555908100153
 20
528.7066495409461
 10
790.7679743589708
 20
528.0793290029081
 10
795.7290666492301
 20
528.0793290029081
 10
797.040593919378
 20
528.0793290029081
 10
799.4356579013413
 20
528.0793290029081
 10
800.7471838745582
 20
528.5925688436374
 10
802.0587265568506
 20
529.1628490330207
 10
802.7430257776758
 20
530.0181922563708
 10
803.0282289014294
 20
531.9570555098331
 10
803.1422465595911
 20
532.5271815777666
 10
803.2563286474667
 20
532.6983026237297
 10
803.5413902807832
 20
532.6983026237297
 10
803.8265303682717
 20
532.6983026237297
 10
803.8835707154849
 20
532.2991588924543
 10
803.8835090669067
 20
531.9570555098331
 10
803.8835090669067
 20
531.614798005762
 10
803.48434993357
 20
528.3075058096708
 10
803.1992098460815
 20
527.2810261282127
 10
802.8571064721027
 20
526.0263850521372
 10
802.3438666443393
 20
526.0263850521372
 10
800.4050818219997
 20
526.0263850521372
 10
796.6414501981859
 20
526.0263850521372
 10
793.7332401582573
 20
526.1404657494457
 10
791.6803579079265
 20
526.1975215102451
 10
789.5704507225267
 20
526.3116022075537
 10
788.2589080402342
 20
526.3116022075537
 10
787.5175838843404
 20
526.3116022075537
 10
787.4034877777693
 20
526.3116022075537
 10
786.434140942323
 20
526.3116022075537
 10
785.3506980003059
 20
526.2545618588996
 10
784.3812741041367
 20
526.1975215102451
 10
783.2407908149061
 20
526.1404657494457
 10
782.4424108996542
 20
526.1404657494457
 10
781.9291710718905
 20
526.1404657494457
 10
781.6441080451252
 20
526.2545618588996
 10
781.6441080451252
 20
526.5396248928664
 10
781.6441080451252
 20
526.7107459388292
 10
781.7581270909736
 20
526.9387686241417
 10
782.0432671784621
 20
526.9387686241417
 10
782.4994512468675
 20
526.9387686241417
 10
783.1266947083348
 20
527.1099050822497
 10
783.5828941888848
 20
527.1669454309042
 10
784.5523180850539
 20
527.3380664768668
 10
784.6663371309022
 20
528.3075058096708
 10
784.8945139319002
 20
529.7331292224042
 10
785.1795778954573
 20
531.7288787030705
 10
785.1795778954573
 20
535.5495494491964
 10
785.1795778954573
 20
540.2254247093667
 10
785.1795778954573
 20
540.2254247093667
 10
785.1795778954573
 20
548.7791651857673
 10
785.1795778954573
 20
548.7791651857673
 97
        0
 97
        0
 75
     2
 76
     1
 98
        0
450
        0
451
        0
460
0.0
461
0.0
452
        1
462
0.0
453
        0
470

  0
SPLINE
  5
960
330
955
100
AcDbEntity
  8
0
370
     0
100
AcDbSpline
210
0.0
220
0.0
230
1.0
 70
     9
 71
     3
 72
    89
 73
    85
 74
     0
 42
0.000000001
 43
0.0000000001
 40
0.0
 40
0.0
 40
0.0
 40
0.0
 40
1.0
 40
1.0
 40
1.0
 40
2.0
 40
2.0
 40
2.0
 40
3.0
 40
3.0
 40
3.0
 40
4.0
 40
4.0
 40
4.0
 40
5.0
 40
5.0
 40
5.0
 40
6.0
 40
6.0
 40
6.0
 40
7.0
 40
7.0
 40
7.0
 40
8.0
 40
8.0
 40
8.0
 40
9.0
 40
9.0
 40
9.0
 40
10.0
 40
10.0
 40
10.0
 40
11.0
 40
11.0
 40
11.0
 40
12.0
 40
12.0
 40
12.0
 40
13.0
 40
13.0
 40
13.0
 40
14.0
 40
14.0
 40
14.0
 40
15.0
 40
15.0
 40
15.0
 40
16.0
 40
16.0
 40
16.0
 40
17.0
 40
17.0
 40
17.0
 40
18.0
 40
18.0
 40
18.0
 40
19.0
 40
19.0
 40
19.0
 40
20.0
 40
20.0
 40
20.0
 40
21.0
 40
21.0
 40
21.0
 40
22.0
 40
22.0
 40
22.0
 40
23.0
 40
23.0
 40
23.0
 40
24.0
 40
24.0
 40
24.0
 40
25.0
 40
25.0
 40
25.0
 40
26.0
 40
26.0
 40
26.0
 40
27.0
 40
27.0
 40
27.0
 40
28.0
 40
28.0
 40
28.0
 40
28.0
 10
828.4025820470018
 20
561.8376444642299
 30
0.0
 10
829.0297638598906
 20
563.4343272743465
 30
0.0
 10
829.2579252487442
 20
563.719467369038
 30
0.0
 10
829.600182744169
 20
563.719467369038
 30
0.0
 10
830.1132684504864
 20
563.719467369038
 30
0.0
 10
830.2844049042711
 20
563.0351681309257
 30
0.0
 10
830.7976447320346
 20
561.9517405736838
 30
0.0
 10
831.7100282809903
 20
559.8988582714926
 30
0.0
 10
839.7503745920952
 20
539.8833213267456
 30
0.0
 10
842.8296440250855
 20
532.5271815777666
 30
0.0
 10
844.6544289743942
 20
528.1934251123621
 30
0.0
 10
846.0231482739485
 20
527.5660891621793
 30
0.0
 10
847.1065141552427
 20
527.2239857795584
 30
0.0
 10
847.8479307840045
 20
526.9959630942461
 30
0.0
 10
848.5890391698738
 20
526.9387686241417
 30
0.0
 10
849.1022635854927
 20
526.9387686241417
 30
0.0
 10
849.3874807337043
 20
526.9387686241417
 30
0.0
 10
849.729584107683
 20
526.8248420482831
 30
0.0
 10
849.729584107683
 20
526.5396248928664
 30
0.0
 10
849.729584107683
 20
526.2545618588996
 30
0.0
 10
849.1594580541521
 20
526.1404657494457
 30
0.0
 10
848.5890391698738
 20
526.1404657494457
 30
0.0
 10
847.8479307840045
 20
526.1404657494457
 30
0.0
 10
844.1411867073778
 20
526.1404657494457
 30
0.0
 10
840.6627581410509
 20
526.2545618588996
 30
0.0
 10
839.693334244882
 20
526.3116022075537
 30
0.0
 10
838.8950313903531
 20
526.3116022075537
 30
0.0
 10
838.8950313903531
 20
526.5968193629706
 30
0.0
 10
838.8950313903531
 20
526.8248420482831
 30
0.0
 10
839.0091274969243
 20
526.8248420482831
 30
0.0
 10
839.2371347643317
 20
526.9387686241417
 30
0.0
 10
839.5223519125432
 20
527.0528647335952
 30
0.0
 10
840.0355917403066
 20
527.4520084648705
 30
0.0
 10
839.693334244882
 20
528.2504654610163
 30
0.0
 10
839.693334244882
 20
528.2504654610163
 30
0.0
 10
835.1884436352943
 20
539.3702356074668
 30
0.0
 10
835.1884436352943
 20
539.3702356074668
 30
0.0
 10
835.0745148621919
 20
539.5982582927793
 30
0.0
 10
835.0173203935325
 20
539.6552986414334
 30
0.0
 10
834.7322573667668
 20
539.6552986414334
 30
0.0
 10
834.7322573667668
 20
539.6552986414334
 30
0.0
 10
823.1562880206755
 20
539.6552986414334
 30
0.0
 10
823.1562880206755
 20
539.6552986414334
 30
0.0
 10
822.9282653411235
 20
539.6552986414334
 30
0.0
 10
822.7571288873386
 20
539.5412179441249
 30
0.0
 10
822.6430481929121
 20
539.256139498013
 30
0.0
 10
822.6430481929121
 20
539.256139498013
 30
0.0
 10
819.7918014394739
 20
531.5007018963085
 30
0.0
 10
819.7918014394739
 20
531.5007018963085
 30
0.0
 10
819.3357560803699
 20
530.3032552903373
 30
0.0
 10
819.0506948460525
 20
529.1058086843661
 30
0.0
 10
819.0506948460525
 20
528.2504654610163
 30
0.0
 10
819.0506948460525
 20
527.2810261282127
 30
0.0
 10
819.9058821339006
 20
526.9387686241417
 30
0.0
 10
820.7613794570889
 20
526.9387686241417
 30
0.0
 10
820.7613794570889
 20
526.9387686241417
 30
0.0
 10
821.2174248161929
 20
526.9387686241417
 30
0.0
 10
821.2174248161929
 20
526.9387686241417
 30
0.0
 10
821.616568537385
 20
526.9387686241417
 30
0.0
 10
821.7306646439563
 20
526.7678016996288
 30
0.0
 10
821.7306646439563
 20
526.5396248928664
 30
0.0
 10
821.7306646439563
 20
526.2545618588996
 30
0.0
 10
821.445601617191
 20
526.1404657494457
 30
0.0
 10
820.9894021366409
 20
526.1404657494457
 30
0.0
 10
819.79195556092
 20
526.1404657494457
 30
0.0
 10
817.0547895019083
 20
526.3116022075537
 30
0.0
 10
816.4845093269317
 20
526.3116022075537
 30
0.0
 10
815.9712694991679
 20
526.3116022075537
 30
0.0
 10
813.4622802411547
 20
526.1404657494457
 30
0.0
 10
811.4093363422451
 20
526.1404657494457
 30
0.0
 10
810.7820158200551
 20
526.1404657494457
 30
0.0
 10
810.4400665675225
 20
526.2545618588996
 30
0.0
 10
810.4400665675225
 20
526.5396248928664
 30
0.0
 10
810.4400665675225
 20
526.7678016996288
 30
0.0
 10
810.6679351256284
 20
526.9387686241417
 30
0.0
 10
810.8960965144817
 20
526.9387686241417
 30
0.0
 10
811.2383694220513
 20
526.9387686241417
 30
0.0
 10
811.9796165172221
 20
526.9959630942461
 30
0.0
 10
812.3787772744602
 20
527.0528647335952
 30
0.0
 10
814.6597422290204
 20
527.3380664768668
 30
0.0
 10
815.629166125189
 20
529.0487683357119
 30
0.0
 10
816.5985900213581
 20
531.5007018963085
 30
0.0
 10
816.5985900213581
 20
531.5007018963085
 30
0.0
 10
828.4025820470018
 20
561.8376444642299
 30
0.0
 10
828.4025820470018
 20
561.8376444642299
 30
0.0
  0
SPLINE
  5
961
330
955
100
AcDbEntity
  8
0
370
     0
100
AcDbSpline
210
0.0
220
0.0
230
1.0
 70
     9
 71
     3
 72
    23
 73
    19
 74
     0
 42
0.000000001
 43
0.0000000001
 40
0.0
 40
0.0
 40
0.0
 40
0.0
 40
1.0
 40
1.0
 40
1.0
 40
2.0
 40
2.0
 40
2.0
 40
3.0
 40
3.0
 40
3.0
 40
4.0
 40
4.0
 40
4.0
 40
5.0
 40
5.0
 40
5.0
 40
6.0
 40
6.0
 40
6.0
 40
6.0
 10
833.9908407380052
 20
541.6510481221002
 30
0.0
 10
834.2190197146358
 20
541.6510481221002
 30
0.0
 10
834.2190197146358
 20
541.7651288194089
 30
0.0
 10
834.1621159010918
 20
541.9933056261711
 30
0.0
 10
834.1621159010918
 20
541.9933056261711
 30
0.0
 10
829.2008849015308
 20
555.2798846506714
 30
0.0
 10
829.2008849015308
 20
555.2798846506714
 30
0.0
 10
828.9156677533192
 20
556.0212242374375
 30
0.0
 10
828.6306047265536
 20
556.0212242374375
 30
0.0
 10
828.3455416997885
 20
555.2798846506714
 30
0.0
 10
828.3455416997885
 20
555.2798846506714
 30
0.0
 10
823.669527848439
 20
541.9933056261711
 30
0.0
 10
823.669527848439
 20
541.9933056261711
 30
0.0
 10
823.6126262105271
 20
541.7651288194089
 30
0.0
 10
823.669527848439
 20
541.6510481221002
 30
0.0
 10
823.8406488900791
 20
541.6510481221002
 30
0.0
 10
823.8406488900791
 20
541.6510481221002
 30
0.0
 10
833.9908407380052
 20
541.6510481221002
 30
0.0
 10
833.9908407380052
 20
541.6510481221002
 30
0.0
  0
HATCH
  5
962
330
955
100
AcDbEntity
  8
0
100
AcDbHatch
 10
0.0
 20
0.0
 30
0.0
210
0.0
220
0.0
230
1.0
  2
SOLID
 70
     1
 71
     0
 91
        2
 92
        1
 93
        1
 72
     4
 94
        3
 73
     0
 74
     0
 95
       89
 96
       85
 40
0.0
 40
0.0
 40
0.0
 40
0.0
 40
1.0
 40
1.0
 40
1.0
 40
2.0
 40
2.0
 40
2.0
 40
3.0
 40
3.0
 40
3.0
 40
4.0
 40
4.0
 40
4.0
 40
5.0
 40
5.0
 40
5.0
 40
6.0
 40
6.0
 40
6.0
 40
7.0
 40
7.0
 40
7.0
 40
8.0
 40
8.0
 40
8.0
 40
9.0
 40
9.0
 40
9.0
 40
10.0
 40
10.0
 40
10.0
 40
11.0
 40
11.0
 40
11.0
 40
12.0
 40
12.0
 40
12.0
 40
13.0
 40
13.0
 40
13.0
 40
14.0
 40
14.0
 40
14.0
 40
15.0
 40
15.0
 40
15.0
 40
16.0
 40
16.0
 40
16.0
 40
17.0
 40
17.0
 40
17.0
 40
18.0
 40
18.0
 40
18.0
 40
19.0
 40
19.0
 40
19.0
 40
20.0
 40
20.0
 40
20.0
 40
21.0
 40
21.0
 40
21.0
 40
22.0
 40
22.0
 40
22.0
 40
23.0
 40
23.0
 40
23.0
 40
24.0
 40
24.0
 40
24.0
 40
25.0
 40
25.0
 40
25.0
 40
26.0
 40
26.0
 40
26.0
 40
27.0
 40
27.0
 40
27.0
 40
28.0
 40
28.0
 40
28.0
 40
28.0
 10
828.4025820470018
 20
561.8376444642299
 10
829.0297638598906
 20
563.4343272743465
 10
829.2579252487442
 20
563.719467369038
 10
829.600182744169
 20
563.719467369038
 10
830.1132684504864
 20
563.719467369038
 10
830.2844049042711
 20
563.0351681309257
 10
830.7976447320346
 20
561.9517405736838
 10
831.7100282809903
 20
559.8988582714926
 10
839.7503745920952
 20
539.8833213267456
 10
842.8296440250855
 20
532.5271815777666
 10
844.6544289743942
 20
528.1934251123621
 10
846.0231482739485
 20
527.5660891621793
 10
847.1065141552427
 20
527.2239857795584
 10
847.8479307840045
 20
526.9959630942461
 10
848.5890391698738
 20
526.9387686241417
 10
849.1022635854927
 20
526.9387686241417
 10
849.3874807337043
 20
526.9387686241417
 10
849.729584107683
 20
526.8248420482831
 10
849.729584107683
 20
526.5396248928664
 10
849.729584107683
 20
526.2545618588996
 10
849.1594580541521
 20
526.1404657494457
 10
848.5890391698738
 20
526.1404657494457
 10
847.8479307840045
 20
526.1404657494457
 10
844.1411867073778
 20
526.1404657494457
 10
840.6627581410509
 20
526.2545618588996
 10
839.693334244882
 20
526.3116022075537
 10
838.8950313903531
 20
526.3116022075537
 10
838.8950313903531
 20
526.5968193629706
 10
838.8950313903531
 20
526.8248420482831
 10
839.0091274969243
 20
526.8248420482831
 10
839.2371347643317
 20
526.9387686241417
 10
839.5223519125432
 20
527.0528647335952
 10
840.0355917403066
 20
527.4520084648705
 10
839.693334244882
 20
528.2504654610163
 10
839.693334244882
 20
528.2504654610163
 10
835.1884436352943
 20
539.3702356074668
 10
835.1884436352943
 20
539.3702356074668
 10
835.0745148621919
 20
539.5982582927793
 10
835.0173203935325
 20
539.6552986414334
 10
834.7322573667668
 20
539.6552986414334
 10
834.7322573667668
 20
539.6552986414334
 10
823.1562880206755
 20
539.6552986414334
 10
823.1562880206755
 20
539.6552986414334
 10
822.9282653411235
 20
539.6552986414334
 10
822.7571288873386
 20
539.5412179441249
 10
822.6430481929121
 20
539.256139498013
 10
822.6430481929121
 20
539.256139498013
 10
819.7918014394739
 20
531.5007018963085
 10
819.7918014394739
 20
531.5007018963085
 10
819.3357560803699
 20
530.3032552903373
 10
819.0506948460525
 20
529.1058086843661
 10
819.0506948460525
 20
528.2504654610163
 10
819.0506948460525
 20
527.2810261282127
 10
819.9058821339006
 20
526.9387686241417
 10
820.7613794570889
 20
526.9387686241417
 10
820.7613794570889
 20
526.9387686241417
 10
821.2174248161929
 20
526.9387686241417
 10
821.2174248161929
 20
526.9387686241417
 10
821.616568537385
 20
526.9387686241417
 10
821.7306646439563
 20
526.7678016996288
 10
821.7306646439563
 20
526.5396248928664
 10
821.7306646439563
 20
526.2545618588996
 10
821.445601617191
 20
526.1404657494457
 10
820.9894021366409
 20
526.1404657494457
 10
819.79195556092
 20
526.1404657494457
 10
817.0547895019083
 20
526.3116022075537
 10
816.4845093269317
 20
526.3116022075537
 10
815.9712694991679
 20
526.3116022075537
 10
813.4622802411547
 20
526.1404657494457
 10
811.4093363422451
 20
526.1404657494457
 10
810.7820158200551
 20
526.1404657494457
 10
810.4400665675225
 20
526.2545618588996
 10
810.4400665675225
 20
526.5396248928664
 10
810.4400665675225
 20
526.7678016996288
 10
810.6679351256284
 20
526.9387686241417
 10
810.8960965144817
 20
526.9387686241417
 10
811.2383694220513
 20
526.9387686241417
 10
811.9796165172221
 20
526.9959630942461
 10
812.3787772744602
 20
527.0528647335952
 10
814.6597422290204
 20
527.3380664768668
 10
815.629166125189
 20
529.0487683357119
 10
816.5985900213581
 20
531.5007018963085
 10
816.5985900213581
 20
531.5007018963085
 10
828.4025820470018
 20
561.8376444642299
 10
828.4025820470018
 20
561.8376444642299
 97
        0
 97
        0
 92
        1
 93
        1
 72
     4
 94
        3
 73
     0
 74
     0
 95
       23
 96
       19
 40
0.0
 40
0.0
 40
0.0
 40
0.0
 40
1.0
 40
1.0
 40
1.0
 40
2.0
 40
2.0
 40
2.0
 40
3.0
 40
3.0
 40
3.0
 40
4.0
 40
4.0
 40
4.0
 40
5.0
 40
5.0
 40
5.0
 40
6.0
 40
6.0
 40
6.0
 40
6.0
 10
833.9908407380052
 20
541.6510481221002
 10
834.2190197146358
 20
541.6510481221002
 10
834.2190197146358
 20
541.7651288194089
 10
834.1621159010918
 20
541.9933056261711
 10
834.1621159010918
 20
541.9933056261711
 10
829.2008849015308
 20
555.2798846506714
 10
829.2008849015308
 20
555.2798846506714
 10
828.9156677533192
 20
556.0212242374375
 10
828.6306047265536
 20
556.0212242374375
 10
828.3455416997885
 20
555.2798846506714
 10
828.3455416997885
 20
555.2798846506714
 10
823.669527848439
 20
541.9933056261711
 10
823.669527848439
 20
541.9933056261711
 10
823.6126262105271
 20
541.7651288194089
 10
823.669527848439
 20
541.6510481221002
 10
823.8406488900791
 20
541.6510481221002
 10
823.8406488900791
 20
541.6510481221002
 10
833.9908407380052
 20
541.6510481221002
 10
833.9908407380052
 20
541.6510481221002
 97
        0
 97
        0
 75
     2
 76
     1
 98
        0
450
        0
451
        0
460
0.0
461
0.0
452
        1
462
0.0
453
        0
470

  0
SPLINE
  5
963
330
955
100
AcDbEntity
  8
0
370
     0
100
AcDbSpline
210
0.0
220
0.0
230
1.0
 70
     9
 71
     3
 72
   113
 73
   109
 74
     0
 42
0.000000001
 43
0.0000000001
 40
0.0
 40
0.0
 40
0.0
 40
0.0
 40
1.0
 40
1.0
 40
1.0
 40
2.0
 40
2.0
 40
2.0
 40
3.0
 40
3.0
 40
3.0
 40
4.0
 40
4.0
 40
4.0
 40
5.0
 40
5.0
 40
5.0
 40
6.0
 40
6.0
 40
6.0
 40
7.0
 40
7.0
 40
7.0
 40
8.0
 40
8.0
 40
8.0
 40
9.0
 40
9.0
 40
9.0
 40
10.0
 40
10.0
 40
10.0
 40
11.0
 40
11.0
 40
11.0
 40
12.0
 40
12.0
 40
12.0
 40
13.0
 40
13.0
 40
13.0
 40
14.0
 40
14.0
 40
14.0
 40
15.0
 40
15.0
 40
15.0
 40
16.0
 40
16.0
 40
16.0
 40
17.0
 40
17.0
 40
17.0
 40
18.0
 40
18.0
 40
18.0
 40
19.0
 40
19.0
 40
19.0
 40
20.0
 40
20.0
 40
20.0
 40
21.0
 40
21.0
 40
21.0
 40
22.0
 40
22.0
 40
22.0
 40
23.0
 40
23.0
 40
23.0
 40
24.0
 40
24.0
 40
24.0
 40
25.0
 40
25.0
 40
25.0
 40
26.0
 40
26.0
 40
26.0
 40
27.0
 40
27.0
 40
27.0
 40
28.0
 40
28.0
 40
28.0
 40
29.0
 40
29.0
 40
29.0
 40
30.0
 40
30.0
 40
30.0
 40
31.0
 40
31.0
 40
31.0
 40
32.0
 40
32.0
 40
32.0
 40
33.0
 40
33.0
 40
33.0
 40
34.0
 40
34.0
 40
34.0
 40
35.0
 40
35.0
 40
35.0
 40
36.0
 40
36.0
 40
36.0
 40
36.0
 10
859.4269054982955
 20
548.7791651857673
 30
0.0
 10
859.4269054982955
 20
556.3062872714043
 30
0.0
 10
859.4269054982955
 20
557.6748703354834
 30
0.0
 10
859.3128093917242
 20
559.2145744455256
 30
0.0
 10
859.1987286972974
 20
560.8682205435711
 30
0.0
 10
858.9136656705321
 20
561.6666004789919
 30
0.0
 10
857.2600223719577
 20
561.8946848128842
 30
0.0
 10
856.8607217716229
 20
561.9517405736838
 30
0.0
 10
856.005517279182
 20
562.0087809223381
 30
0.0
 10
855.5491790893304
 20
562.0087809223381
 30
0.0
 10
855.3781994671497
 20
562.0087809223381
 30
0.0
 10
855.1500353681381
 20
562.2368036076505
 30
0.0
 10
855.1500353681381
 20
562.4079246536132
 30
0.0
 10
855.1500353681381
 20
562.6929876875798
 30
0.0
 10
855.3781994671497
 20
562.8070837970336
 30
0.0
 10
855.9484769319686
 20
562.8071608577587
 30
0.0
 10
858.2294462926167
 20
562.8071608577587
 30
0.0
 10
861.5939300916318
 20
562.6930647483052
 30
0.0
 10
861.8789931183972
 20
562.6930647483052
 30
0.0
 10
862.3922329461604
 20
562.6930647483052
 30
0.0
 10
866.6119086076585
 20
562.8071608577587
 30
0.0
 10
868.1516126788043
 20
562.8070837970336
 30
0.0
 10
871.3449782183657
 20
562.8070837970336
 30
0.0
 10
874.8805858412078
 20
562.5219437023421
 30
0.0
 10
877.5036557936479
 20
560.6971611461882
 30
0.0
 10
878.7580040072807
 20
559.7847775741841
 30
0.0
 10
880.9819335954912
 20
557.4468476501712
 30
0.0
 10
880.9819335954912
 20
554.0823609839755
 30
0.0
 10
880.9819335954912
 20
550.4898516324673
 30
0.0
 10
879.4994052238974
 20
547.0112842689627
 30
0.0
 10
874.8233945739332
 20
543.019785307629
 30
0.0
 10
878.9292791703669
 20
537.8874177246291
 30
0.0
 10
882.4075570082248
 20
533.4966054984252
 30
0.0
 10
885.3159948373454
 20
530.4743917484453
 30
0.0
 10
887.9959664276976
 20
527.7372256202871
 30
0.0
 10
889.6497511932702
 20
527.2810261282127
 30
0.0
 10
890.9043922376506
 20
527.1099050822497
 30
0.0
 10
891.8736774245182
 20
526.9387686241417
 30
0.0
 10
892.3869208973584
 20
526.9387686241417
 30
0.0
 10
892.6719802790469
 20
526.9387686241417
 30
0.0
 10
892.9570433058124
 20
526.9387686241417
 30
0.0
 10
893.1283184688986
 20
526.7107459388292
 30
0.0
 10
893.1283184688986
 20
526.5396248928664
 30
0.0
 10
893.1283184688986
 20
526.2545618588996
 30
0.0
 10
892.8429662679834
 20
526.1404657494457
 30
0.0
 10
891.9305790624301
 20
526.1404657494457
 30
0.0
 10
891.9305790624301
 20
526.1404657494457
 30
0.0
 10
888.7942538700817
 20
526.1404657494457
 30
0.0
 10
888.7942538700817
 20
526.1404657494457
 30
0.0
 10
885.9433153595359
 20
526.1404657494457
 30
0.0
 10
884.6886743151554
 20
526.4256829048624
 30
0.0
 10
883.4340178586302
 20
527.1099050822497
 30
0.0
 10
881.2673015081864
 20
528.2504654610163
 30
0.0
 10
879.4425189981305
 20
530.5883183243039
 30
0.0
 10
876.5912722446923
 20
534.2378680244666
 30
0.0
 10
874.4812879985696
 20
536.8610921646211
 30
0.0
 10
872.2573617673216
 20
539.9974020240545
 30
0.0
 10
871.1738417645811
 20
541.3089447394792
 30
0.0
 10
870.9458190850291
 20
541.5369674247914
 30
0.0
 10
870.8317383906024
 20
541.5941618948957
 30
0.0
 10
870.4896350166237
 20
541.5941618948957
 30
0.0
 10
870.4896350166237
 20
541.5941618948957
 30
0.0
 10
864.1029193496452
 20
541.7080884707544
 30
0.0
 10
864.1029193496452
 20
541.7080884707544
 30
0.0
 10
863.8747425486469
 20
541.7080884707544
 30
0.0
 10
863.7606618542204
 20
541.5941618948957
 30
0.0
 10
863.7606618542204
 20
541.3089447394792
 30
0.0
 10
863.7606618542204
 20
541.3089447394792
 30
0.0
 10
863.7606618542204
 20
540.1685384821623
 30
0.0
 10
863.7606618542204
 20
540.1685384821623
 30
0.0
 10
863.7606618542204
 20
535.4925091005418
 30
0.0
 10
863.7606618542204
 20
531.7288787030705
 30
0.0
 10
863.9888386552184
 20
529.7331292224042
 30
0.0
 10
864.1598209875569
 20
528.3075058096708
 30
0.0
 10
864.4450227236237
 20
527.3951222376663
 30
0.0
 10
865.9845880854684
 20
527.1669454309042
 30
0.0
 10
866.6691030763177
 20
527.0528647335952
 30
0.0
 10
867.7524689576124
 20
526.9387686241417
 30
0.0
 10
868.2086684381623
 20
526.9387686241417
 30
0.0
 10
868.550771812141
 20
526.9387686241417
 30
0.0
 10
868.6078121593544
 20
526.7107459388292
 30
0.0
 10
868.6078121593544
 20
526.5396248928664
 30
0.0
 10
868.6078121593544
 20
526.3116022075537
 30
0.0
 10
868.3797894798024
 20
526.1404657494457
 30
0.0
 10
867.8095093048256
 20
526.1404657494457
 30
0.0
 10
865.0723432458141
 20
526.1404657494457
 30
0.0
 10
861.8789931183972
 20
526.3116022075537
 30
0.0
 10
861.6508317295435
 20
526.3116022075537
 30
0.0
 10
861.5939300916318
 20
526.3116022075537
 30
0.0
 10
858.2294462926167
 20
526.1404657494457
 30
0.0
 10
856.6897394392841
 20
526.1404657494457
 30
0.0
 10
856.1764996115208
 20
526.1404657494457
 30
0.0
 10
855.8914365847552
 20
526.2545618588996
 30
0.0
 10
855.8914365847552
 20
526.5396248928664
 30
0.0
 10
855.8914365847552
 20
526.7107459388292
 30
0.0
 10
856.005517279182
 20
526.9387686241417
 30
0.0
 10
856.2905984512992
 20
526.9387686241417
 30
0.0
 10
856.7467797864976
 20
526.9387686241417
 30
0.0
 10
857.3739615993861
 20
527.0528647335952
 30
0.0
 10
857.8302997892379
 20
527.1669454309042
 30
0.0
 10
858.7995849761052
 20
527.3951222376663
 30
0.0
 10
858.9136656705321
 20
528.3075058096708
 30
0.0
 10
859.1418452767662
 20
529.7331292224042
 30
0.0
 10
859.4269054982955
 20
531.7288787030705
 30
0.0
 10
859.4269054982955
 20
535.5495494491964
 30
0.0
 10
859.4269054982955
 20
540.2254247093667
 30
0.0
 10
859.4269054982955
 20
540.2254247093667
 30
0.0
 10
859.4269054982955
 20
548.7791651857673
 30
0.0
 10
859.4269054982955
 20
548.7791651857673
 30
0.0
  0
SPLINE
  5
964
330
955
100
AcDbEntity
  8
0
370
     0
100
AcDbSpline
210
0.0
220
0.0
230
1.0
 70
     9
 71
     3
 72
    29
 73
    25
 74
     0
 42
0.000000001
 43
0.0000000001
 40
0.0
 40
0.0
 40
0.0
 40
0.0
 40
1.0
 40
1.0
 40
1.0
 40
2.0
 40
2.0
 40
2.0
 40
3.0
 40
3.0
 40
3.0
 40
4.0
 40
4.0
 40
4.0
 40
5.0
 40
5.0
 40
5.0
 40
6.0
 40
6.0
 40
6.0
 40
7.0
 40
7.0
 40
7.0
 40
8.0
 40
8.0
 40
8.0
 40
8.0
 10
863.7606618542204
 20
544.6734314056751
 30
0.0
 10
863.7606618542204
 20
544.3882142502582
 30
0.0
 10
863.8747425486469
 20
544.2172319136004
 30
0.0
 10
864.1029193496452
 20
544.0461108676371
 30
0.0
 10
864.8443389276996
 20
543.6469517242171
 30
0.0
 10
867.4102114621874
 20
543.3048483415961
 30
0.0
 10
869.6341376934354
 20
543.3048483415961
 30
0.0
 10
870.8317383906024
 20
543.3048483415961
 30
0.0
 10
872.200321420108
 20
543.3617345688003
 30
0.0
 10
873.3977711611997
 20
544.1601915649458
 30
0.0
 10
875.1084543993139
 20
545.3005978222626
 30
0.0
 10
876.4201512030521
 20
547.8667816137629
 30
0.0
 10
876.4201512030521
 20
551.5732946018547
 30
0.0
 10
876.4201512030521
 20
557.6178916354091
 30
0.0
 10
873.1127049690638
 20
561.0963973503337
 30
0.0
 10
867.7524689576124
 20
561.0963973503337
 30
0.0
 10
866.269808218983
 20
561.0963973503337
 30
0.0
 10
864.6730454031757
 20
560.9252608922256
 30
0.0
 10
864.1598209875569
 20
560.811257255642
 30
0.0
 10
863.9319399435501
 20
560.6971611461882
 30
0.0
 10
863.7606618542204
 20
560.5261171609503
 30
0.0
 10
863.7606618542204
 20
560.2409770662586
 30
0.0
 10
863.7606618542204
 20
560.2409770662586
 30
0.0
 10
863.7606618542204
 20
544.6734314056751
 30
0.0
 10
863.7606618542204
 20
544.6734314056751
 30
0.0
  0
HATCH
  5
965
330
955
100
AcDbEntity
  8
0
100
AcDbHatch
 10
0.0
 20
0.0
 30
0.0
210
0.0
220
0.0
230
1.0
  2
SOLID
 70
     1
 71
     0
 91
        2
 92
        1
 93
        1
 72
     4
 94
        3
 73
     0
 74
     0
 95
      113
 96
      109
 40
0.0
 40
0.0
 40
0.0
 40
0.0
 40
1.0
 40
1.0
 40
1.0
 40
2.0
 40
2.0
 40
2.0
 40
3.0
 40
3.0
 40
3.0
 40
4.0
 40
4.0
 40
4.0
 40
5.0
 40
5.0
 40
5.0
 40
6.0
 40
6.0
 40
6.0
 40
7.0
 40
7.0
 40
7.0
 40
8.0
 40
8.0
 40
8.0
 40
9.0
 40
9.0
 40
9.0
 40
10.0
 40
10.0
 40
10.0
 40
11.0
 40
11.0
 40
11.0
 40
12.0
 40
12.0
 40
12.0
 40
13.0
 40
13.0
 40
13.0
 40
14.0
 40
14.0
 40
14.0
 40
15.0
 40
15.0
 40
15.0
 40
16.0
 40
16.0
 40
16.0
 40
17.0
 40
17.0
 40
17.0
 40
18.0
 40
18.0
 40
18.0
 40
19.0
 40
19.0
 40
19.0
 40
20.0
 40
20.0
 40
20.0
 40
21.0
 40
21.0
 40
21.0
 40
22.0
 40
22.0
 40
22.0
 40
23.0
 40
23.0
 40
23.0
 40
24.0
 40
24.0
 40
24.0
 40
25.0
 40
25.0
 40
25.0
 40
26.0
 40
26.0
 40
26.0
 40
27.0
 40
27.0
 40
27.0
 40
28.0
 40
28.0
 40
28.0
 40
29.0
 40
29.0
 40
29.0
 40
30.0
 40
30.0
 40
30.0
 40
31.0
 40
31.0
 40
31.0
 40
32.0
 40
32.0
 40
32.0
 40
33.0
 40
33.0
 40
33.0
 40
34.0
 40
34.0
 40
34.0
 40
35.0
 40
35.0
 40
35.0
 40
36.0
 40
36.0
 40
36.0
 40
36.0
 10
859.4269054982955
 20
548.7791651857673
 10
859.4269054982955
 20
556.3062872714043
 10
859.4269054982955
 20
557.6748703354834
 10
859.3128093917242
 20
559.2145744455256
 10
859.1987286972974
 20
560.8682205435711
 10
858.9136656705321
 20
561.6666004789919
 10
857.2600223719577
 20
561.8946848128842
 10
856.8607217716229
 20
561.9517405736838
 10
856.005517279182
 20
562.0087809223381
 10
855.5491790893304
 20
562.0087809223381
 10
855.3781994671497
 20
562.0087809223381
 10
855.1500353681381
 20
562.2368036076505
 10
855.1500353681381
 20
562.4079246536132
 10
855.1500353681381
 20
562.6929876875798
 10
855.3781994671497
 20
562.8070837970336
 10
855.9484769319686
 20
562.8071608577587
 10
858.2294462926167
 20
562.8071608577587
 10
861.5939300916318
 20
562.6930647483052
 10
861.8789931183972
 20
562.6930647483052
 10
862.3922329461604
 20
562.6930647483052
 10
866.6119086076585
 20
562.8071608577587
 10
868.1516126788043
 20
562.8070837970336
 10
871.3449782183657
 20
562.8070837970336
 10
874.8805858412078
 20
562.5219437023421
 10
877.5036557936479
 20
560.6971611461882
 10
878.7580040072807
 20
559.7847775741841
 10
880.9819335954912
 20
557.4468476501712
 10
880.9819335954912
 20
554.0823609839755
 10
880.9819335954912
 20
550.4898516324673
 10
879.4994052238974
 20
547.0112842689627
 10
874.8233945739332
 20
543.019785307629
 10
878.9292791703669
 20
537.8874177246291
 10
882.4075570082248
 20
533.4966054984252
 10
885.3159948373454
 20
530.4743917484453
 10
887.9959664276976
 20
527.7372256202871
 10
889.6497511932702
 20
527.2810261282127
 10
890.9043922376506
 20
527.1099050822497
 10
891.8736774245182
 20
526.9387686241417
 10
892.3869208973584
 20
526.9387686241417
 10
892.6719802790469
 20
526.9387686241417
 10
892.9570433058124
 20
526.9387686241417
 10
893.1283184688986
 20
526.7107459388292
 10
893.1283184688986
 20
526.5396248928664
 10
893.1283184688986
 20
526.2545618588996
 10
892.8429662679834
 20
526.1404657494457
 10
891.9305790624301
 20
526.1404657494457
 10
891.9305790624301
 20
526.1404657494457
 10
888.7942538700817
 20
526.1404657494457
 10
888.7942538700817
 20
526.1404657494457
 10
885.9433153595359
 20
526.1404657494457
 10
884.6886743151554
 20
526.4256829048624
 10
883.4340178586302
 20
527.1099050822497
 10
881.2673015081864
 20
528.2504654610163
 10
879.4425189981305
 20
530.5883183243039
 10
876.5912722446923
 20
534.2378680244666
 10
874.4812879985696
 20
536.8610921646211
 10
872.2573617673216
 20
539.9974020240545
 10
871.1738417645811
 20
541.3089447394792
 10
870.9458190850291
 20
541.5369674247914
 10
870.8317383906024
 20
541.5941618948957
 10
870.4896350166237
 20
541.5941618948957
 10
870.4896350166237
 20
541.5941618948957
 10
864.1029193496452
 20
541.7080884707544
 10
864.1029193496452
 20
541.7080884707544
 10
863.8747425486469
 20
541.7080884707544
 10
863.7606618542204
 20
541.5941618948957
 10
863.7606618542204
 20
541.3089447394792
 10
863.7606618542204
 20
541.3089447394792
 10
863.7606618542204
 20
540.1685384821623
 10
863.7606618542204
 20
540.1685384821623
 10
863.7606618542204
 20
535.4925091005418
 10
863.7606618542204
 20
531.7288787030705
 10
863.9888386552184
 20
529.7331292224042
 10
864.1598209875569
 20
528.3075058096708
 10
864.4450227236237
 20
527.3951222376663
 10
865.9845880854684
 20
527.1669454309042
 10
866.6691030763177
 20
527.0528647335952
 10
867.7524689576124
 20
526.9387686241417
 10
868.2086684381623
 20
526.9387686241417
 10
868.550771812141
 20
526.9387686241417
 10
868.6078121593544
 20
526.7107459388292
 10
868.6078121593544
 20
526.5396248928664
 10
868.6078121593544
 20
526.3116022075537
 10
868.3797894798024
 20
526.1404657494457
 10
867.8095093048256
 20
526.1404657494457
 10
865.0723432458141
 20
526.1404657494457
 10
861.8789931183972
 20
526.3116022075537
 10
861.6508317295435
 20
526.3116022075537
 10
861.5939300916318
 20
526.3116022075537
 10
858.2294462926167
 20
526.1404657494457
 10
856.6897394392841
 20
526.1404657494457
 10
856.1764996115208
 20
526.1404657494457
 10
855.8914365847552
 20
526.2545618588996
 10
855.8914365847552
 20
526.5396248928664
 10
855.8914365847552
 20
526.7107459388292
 10
856.005517279182
 20
526.9387686241417
 10
856.2905984512992
 20
526.9387686241417
 10
856.7467797864976
 20
526.9387686241417
 10
857.3739615993861
 20
527.0528647335952
 10
857.8302997892379
 20
527.1669454309042
 10
858.7995849761052
 20
527.3951222376663
 10
858.9136656705321
 20
528.3075058096708
 10
859.1418452767662
 20
529.7331292224042
 10
859.4269054982955
 20
531.7288787030705
 10
859.4269054982955
 20
535.5495494491964
 10
859.4269054982955
 20
540.2254247093667
 10
859.4269054982955
 20
540.2254247093667
 10
859.4269054982955
 20
548.7791651857673
 10
859.4269054982955
 20
548.7791651857673
 97
        0
 97
        0
 92
        1
 93
        1
 72
     4
 94
        3
 73
     0
 74
     0
 95
       29
 96
       25
 40
0.0
 40
0.0
 40
0.0
 40
0.0
 40
1.0
 40
1.0
 40
1.0
 40
2.0
 40
2.0
 40
2.0
 40
3.0
 40
3.0
 40
3.0
 40
4.0
 40
4.0
 40
4.0
 40
5.0
 40
5.0
 40
5.0
 40
6.0
 40
6.0
 40
6.0
 40
7.0
 40
7.0
 40
7.0
 40
8.0
 40
8.0
 40
8.0
 40
8.0
 10
863.7606618542204
 20
544.6734314056751
 10
863.7606618542204
 20
544.3882142502582
 10
863.8747425486469
 20
544.2172319136004
 10
864.1029193496452
 20
544.0461108676371
 10
864.8443389276996
 20
543.6469517242171
 10
867.4102114621874
 20
543.3048483415961
 10
869.6341376934354
 20
543.3048483415961
 10
870.8317383906024
 20
543.3048483415961
 10
872.200321420108
 20
543.3617345688003
 10
873.3977711611997
 20
544.1601915649458
 10
875.1084543993139
 20
545.3005978222626
 10
876.4201512030521
 20
547.8667816137629
 10
876.4201512030521
 20
551.5732946018547
 10
876.4201512030521
 20
557.6178916354091
 10
873.1127049690638
 20
561.0963973503337
 10
867.7524689576124
 20
561.0963973503337
 10
866.269808218983
 20
561.0963973503337
 10
864.6730454031757
 20
560.9252608922256
 10
864.1598209875569
 20
560.811257255642
 10
863.9319399435501
 20
560.6971611461882
 10
863.7606618542204
 20
560.5261171609503
 10
863.7606618542204
 20
560.2409770662586
 10
863.7606618542204
 20
560.2409770662586
 10
863.7606618542204
 20
544.6734314056751
 10
863.7606618542204
 20
544.6734314056751
 97
        0
 97
        0
 75
     2
 76
     1
 98
        0
450
        0
451
        0
460
0.0
461
0.0
452
        1
462
0.0
453
        0
470

  0
SPLINE
  5
966
330
955
100
AcDbEntity
  8
0
370
     0
100
AcDbSpline
210
0.0
220
0.0
230
1.0
 70
     9
 71
     3
 72
    98
 73
    94
 74
     0
 42
0.000000001
 43
0.0000000001
 40
0.0
 40
0.0
 40
0.0
 40
0.0
 40
1.0
 40
1.0
 40
1.0
 40
2.0
 40
2.0
 40
2.0
 40
3.0
 40
3.0
 40
3.0
 40
4.0
 40
4.0
 40
4.0
 40
5.0
 40
5.0
 40
5.0
 40
6.0
 40
6.0
 40
6.0
 40
7.0
 40
7.0
 40
7.0
 40
8.0
 40
8.0
 40
8.0
 40
9.0
 40
9.0
 40
9.0
 40
10.0
 40
10.0
 40
10.0
 40
11.0
 40
11.0
 40
11.0
 40
12.0
 40
12.0
 40
12.0
 40
13.0
 40
13.0
 40
13.0
 40
14.0
 40
14.0
 40
14.0
 40
15.0
 40
15.0
 40
15.0
 40
16.0
 40
16.0
 40
16.0
 40
17.0
 40
17.0
 40
17.0
 40
18.0
 40
18.0
 40
18.0
 40
19.0
 40
19.0
 40
19.0
 40
20.0
 40
20.0
 40
20.0
 40
21.0
 40
21.0
 40
21.0
 40
22.0
 40
22.0
 40
22.0
 40
23.0
 40
23.0
 40
23.0
 40
24.0
 40
24.0
 40
24.0
 40
25.0
 40
25.0
 40
25.0
 40
26.0
 40
26.0
 40
26.0
 40
27.0
 40
27.0
 40
27.0
 40
28.0
 40
28.0
 40
28.0
 40
29.0
 40
29.0
 40
29.0
 40
30.0
 40
30.0
 40
30.0
 40
31.0
 40
31.0
 40
31.0
 40
31.0
 10
908.0118767980762
 20
540.1114981335081
 30
0.0
 10
908.0118767980762
 20
532.9835197791464
 30
0.0
 10
908.1259729075302
 20
530.075232605025
 30
0.0
 10
909.0383564795347
 20
529.2198893816751
 30
0.0
 10
909.8366593542303
 20
528.4215865069795
 30
0.0
 10
911.7755226076925
 20
528.0793290029081
 30
0.0
 10
915.7101353418219
 20
528.0793290029081
 30
0.0
 10
918.3332053605264
 20
528.0793290029081
 30
0.0
 10
920.5571316479552
 20
528.1363693515626
 30
0.0
 10
921.7548864968263
 20
529.561992764296
 30
0.0
 10
922.381898791964
 20
530.3032552903373
 30
0.0
 10
922.7810579353844
 20
531.3297349717953
 30
0.0
 10
922.9523331027976
 20
532.2991588924543
 30
0.0
 10
923.009219330002
 20
532.6412622750751
 30
0.0
 10
923.1802016666597
 20
532.9263253090418
 30
0.0
 10
923.4655729435266
 20
532.9263253090418
 30
0.0
 10
923.6934415073887
 20
532.9263253090418
 30
0.0
 10
923.8075222046974
 20
532.6983026237297
 30
0.0
 10
923.8075222046974
 20
532.1850781951455
 30
0.0
 10
923.8075222046974
 20
531.6718383544163
 30
0.0
 10
923.4655729435266
 20
528.763551180295
 30
0.0
 10
923.0664138001063
 20
527.3380664768668
 30
0.0
 10
922.7241562960356
 20
526.1975215102451
 30
0.0
 10
922.5531893715224
 20
526.0263850521372
 30
0.0
 10
919.8729094705687
 20
526.0263850521372
 30
0.0
 10
916.2805542405104
 20
526.0263850521372
 30
0.0
 10
913.4862090543927
 20
526.0835795222416
 30
0.0
 10
911.1482020696554
 20
526.1975215102451
 30
0.0
 10
908.8673741428763
 20
526.2545618588996
 30
0.0
 10
907.1566876961766
 20
526.3116022075537
 30
0.0
 10
905.6738698133388
 20
526.3116022075537
 30
0.0
 10
905.4457084187216
 20
526.3116022075537
 30
0.0
 10
904.5905039046763
 20
526.3116022075537
 30
0.0
 10
903.6209258625678
 20
526.2545618588996
 30
0.0
 10
902.5947544240095
 20
526.1975215102451
 30
0.0
 10
901.5110918090192
 20
526.1404657494457
 30
0.0
 10
900.7127889544905
 20
526.1404657494457
 30
0.0
 10
900.1995491267269
 20
526.1404657494457
 30
0.0
 10
899.9144860999617
 20
526.2545618588996
 30
0.0
 10
899.9144860999617
 20
526.5396248928664
 30
0.0
 10
899.9144860999617
 20
526.7107459388292
 30
0.0
 10
900.0285706325096
 20
526.9387686241417
 30
0.0
 10
900.3136298211538
 20
526.9387686241417
 30
0.0
 10
900.76998342315
 20
526.9387686241417
 30
0.0
 10
901.396995702448
 20
527.0528647335952
 30
0.0
 10
901.8533493044442
 20
527.1669454309042
 30
0.0
 10
902.822622987872
 20
527.3951222376663
 30
0.0
 10
902.936719097326
 20
528.3075058096708
 30
0.0
 10
903.1648804919427
 20
529.7331292224042
 30
0.0
 10
903.44994352591
 20
531.7288787030705
 30
0.0
 10
903.44994352591
 20
535.5495494491964
 30
0.0
 10
903.44994352591
 20
540.2254247093667
 30
0.0
 10
903.44994352591
 20
540.2254247093667
 30
0.0
 10
903.44994352591
 20
548.7791651857673
 30
0.0
 10
903.44994352591
 20
548.7791651857673
 30
0.0
 10
903.44994352591
 20
556.3062872714043
 30
0.0
 10
903.44994352591
 20
557.6748703354834
 30
0.0
 10
903.3358628286011
 20
559.2145744455256
 30
0.0
 10
903.2217821312924
 20
560.8682205435711
 30
0.0
 10
902.936719097326
 20
561.6666004789919
 30
0.0
 10
901.2829150080213
 20
561.8946848128842
 30
0.0
 10
900.8837558746844
 20
561.9517405736838
 30
0.0
 10
900.0285706325096
 20
562.0087809223381
 30
0.0
 10
899.5722286045367
 20
562.0087809223381
 30
0.0
 10
899.4012462721981
 20
562.0087809223381
 30
0.0
 10
899.1730694712
 20
562.2368036076505
 30
0.0
 10
899.1730694712
 20
562.4079246536132
 30
0.0
 10
899.1730694712
 20
562.6929876875798
 30
0.0
 10
899.4012462721981
 20
562.8070837970336
 30
0.0
 10
899.9713723257288
 20
562.8071608577587
 30
0.0
 10
902.2524969199388
 20
562.8071608577587
 30
0.0
 10
905.3888067793719
 20
562.6930647483052
 30
0.0
 10
905.6738698133388
 20
562.6930647483052
 30
0.0
 10
905.9020466201014
 20
562.6930647483052
 30
0.0
 10
909.6656770175723
 20
562.8071608577587
 30
0.0
 10
911.2053965397594
 20
562.8070837970336
 30
0.0
 10
911.7186209683437
 20
562.8070837970336
 30
0.0
 10
912.0036840023102
 20
562.6929876875798
 30
0.0
 10
912.0036840023102
 20
562.4079246536132
 30
0.0
 10
912.0036840023102
 20
562.2368036076505
 30
0.0
 10
911.7755226076925
 20
562.0657442102674
 30
0.0
 10
911.6045402710346
 20
562.0657442102674
 30
0.0
 10
911.2622827669639
 20
562.0657442102674
 30
0.0
 10
910.5208661194723
 20
562.0087809223381
 30
0.0
 10
909.950740051539
 20
561.9517405736838
 30
0.0
 10
908.4682304116013
 20
561.6666004789919
 30
0.0
 10
908.1828591347344
 20
560.9252608922256
 30
0.0
 10
908.0690712681812
 20
559.2145744455256
 30
0.0
 10
908.0118767980762
 20
557.6748703354834
 30
0.0
 10
908.0118767980762
 20
556.3062872714043
 30
0.0
 10
908.0118767980762
 20
548.7791651857673
 30
0.0
 10
908.0118767980762
 20
548.7791651857673
 30
0.0
 10
908.0118767980762
 20
540.1114981335081
 30
0.0
 10
908.0118767980762
 20
540.1114981335081
 30
0.0
  0
HATCH
  5
967
330
955
100
AcDbEntity
  8
0
100
AcDbHatch
 10
0.0
 20
0.0
 30
0.0
210
0.0
220
0.0
230
1.0
  2
SOLID
 70
     1
 71
     0
 91
        1
 92
        1
 93
        1
 72
     4
 94
        3
 73
     0
 74
     0
 95
       98
 96
       94
 40
0.0
 40
0.0
 40
0.0
 40
0.0
 40
1.0
 40
1.0
 40
1.0
 40
2.0
 40
2.0
 40
2.0
 40
3.0
 40
3.0
 40
3.0
 40
4.0
 40
4.0
 40
4.0
 40
5.0
 40
5.0
 40
5.0
 40
6.0
 40
6.0
 40
6.0
 40
7.0
 40
7.0
 40
7.0
 40
8.0
 40
8.0
 40
8.0
 40
9.0
 40
9.0
 40
9.0
 40
10.0
 40
10.0
 40
10.0
 40
11.0
 40
11.0
 40
11.0
 40
12.0
 40
12.0
 40
12.0
 40
13.0
 40
13.0
 40
13.0
 40
14.0
 40
14.0
 40
14.0
 40
15.0
 40
15.0
 40
15.0
 40
16.0
 40
16.0
 40
16.0
 40
17.0
 40
17.0
 40
17.0
 40
18.0
 40
18.0
 40
18.0
 40
19.0
 40
19.0
 40
19.0
 40
20.0
 40
20.0
 40
20.0
 40
21.0
 40
21.0
 40
21.0
 40
22.0
 40
22.0
 40
22.0
 40
23.0
 40
23.0
 40
23.0
 40
24.0
 40
24.0
 40
24.0
 40
25.0
 40
25.0
 40
25.0
 40
26.0
 40
26.0
 40
26.0
 40
27.0
 40
27.0
 40
27.0
 40
28.0
 40
28.0
 40
28.0
 40
29.0
 40
29.0
 40
29.0
 40
30.0
 40
30.0
 40
30.0
 40
31.0
 40
31.0
 40
31.0
 40
31.0
 10
908.0118767980762
 20
540.1114981335081
 10
908.0118767980762
 20
532.9835197791464
 10
908.1259729075302
 20
530.075232605025
 10
909.0383564795347
 20
529.2198893816751
 10
909.8366593542303
 20
528.4215865069795
 10
911.7755226076925
 20
528.0793290029081
 10
915.7101353418219
 20
528.0793290029081
 10
918.3332053605264
 20
528.0793290029081
 10
920.5571316479552
 20
528.1363693515626
 10
921.7548864968263
 20
529.561992764296
 10
922.381898791964
 20
530.3032552903373
 10
922.7810579353844
 20
531.3297349717953
 10
922.9523331027976
 20
532.2991588924543
 10
923.009219330002
 20
532.6412622750751
 10
923.1802016666597
 20
532.9263253090418
 10
923.4655729435266
 20
532.9263253090418
 10
923.6934415073887
 20
532.9263253090418
 10
923.8075222046974
 20
532.6983026237297
 10
923.8075222046974
 20
532.1850781951455
 10
923.8075222046974
 20
531.6718383544163
 10
923.4655729435266
 20
528.763551180295
 10
923.0664138001063
 20
527.3380664768668
 10
922.7241562960356
 20
526.1975215102451
 10
922.5531893715224
 20
526.0263850521372
 10
919.8729094705687
 20
526.0263850521372
 10
916.2805542405104
 20
526.0263850521372
 10
913.4862090543927
 20
526.0835795222416
 10
911.1482020696554
 20
526.1975215102451
 10
908.8673741428763
 20
526.2545618588996
 10
907.1566876961766
 20
526.3116022075537
 10
905.6738698133388
 20
526.3116022075537
 10
905.4457084187216
 20
526.3116022075537
 10
904.5905039046763
 20
526.3116022075537
 10
903.6209258625678
 20
526.2545618588996
 10
902.5947544240095
 20
526.1975215102451
 10
901.5110918090192
 20
526.1404657494457
 10
900.7127889544905
 20
526.1404657494457
 10
900.1995491267269
 20
526.1404657494457
 10
899.9144860999617
 20
526.2545618588996
 10
899.9144860999617
 20
526.5396248928664
 10
899.9144860999617
 20
526.7107459388292
 10
900.0285706325096
 20
526.9387686241417
 10
900.3136298211538
 20
526.9387686241417
 10
900.76998342315
 20
526.9387686241417
 10
901.396995702448
 20
527.0528647335952
 10
901.8533493044442
 20
527.1669454309042
 10
902.822622987872
 20
527.3951222376663
 10
902.936719097326
 20
528.3075058096708
 10
903.1648804919427
 20
529.7331292224042
 10
903.44994352591
 20
531.7288787030705
 10
903.44994352591
 20
535.5495494491964
 10
903.44994352591
 20
540.2254247093667
 10
903.44994352591
 20
540.2254247093667
 10
903.44994352591
 20
548.7791651857673
 10
903.44994352591
 20
548.7791651857673
 10
903.44994352591
 20
556.3062872714043
 10
903.44994352591
 20
557.6748703354834
 10
903.3358628286011
 20
559.2145744455256
 10
903.2217821312924
 20
560.8682205435711
 10
902.936719097326
 20
561.6666004789919
 10
901.2829150080213
 20
561.8946848128842
 10
900.8837558746844
 20
561.9517405736838
 10
900.0285706325096
 20
562.0087809223381
 10
899.5722286045367
 20
562.0087809223381
 10
899.4012462721981
 20
562.0087809223381
 10
899.1730694712
 20
562.2368036076505
 10
899.1730694712
 20
562.4079246536132
 10
899.1730694712
 20
562.6929876875798
 10
899.4012462721981
 20
562.8070837970336
 10
899.9713723257288
 20
562.8071608577587
 10
902.2524969199388
 20
562.8071608577587
 10
905.3888067793719
 20
562.6930647483052
 10
905.6738698133388
 20
562.6930647483052
 10
905.9020466201014
 20
562.6930647483052
 10
909.6656770175723
 20
562.8071608577587
 10
911.2053965397594
 20
562.8070837970336
 10
911.7186209683437
 20
562.8070837970336
 10
912.0036840023102
 20
562.6929876875798
 10
912.0036840023102
 20
562.4079246536132
 10
912.0036840023102
 20
562.2368036076505
 10
911.7755226076925
 20
562.0657442102674
 10
911.6045402710346
 20
562.0657442102674
 10
911.2622827669639
 20
562.0657442102674
 10
910.5208661194723
 20
562.0087809223381
 10
909.950740051539
 20
561.9517405736838
 10
908.4682304116013
 20
561.6666004789919
 10
908.1828591347344
 20
560.9252608922256
 10
908.0690712681812
 20
559.2145744455256
 10
908.0118767980762
 20
557.6748703354834
 10
908.0118767980762
 20
556.3062872714043
 10
908.0118767980762
 20
548.7791651857673
 10
908.0118767980762
 20
548.7791651857673
 10
908.0118767980762
 20
540.1114981335081
 10
908.0118767980762
 20
540.1114981335081
 97
        0
 97
        0
 75
     2
 76
     1
 98
        0
450
        0
451
        0
460
0.0
461
0.0
452
        1
462
0.0
453
        0
470

  0
HATCH
  5
968
330
955
100
AcDbEntity
  8
0
100
AcDbHatch
 10
0.0
 20
0.0
 30
0.0
210
0.0
220
0.0
230
1.0
  2
SOLID
 70
     1
 71
     0
 91
        4
 92
        1
 93
        1
 72
     4
 94
        3
 73
     0
 74
     0
 95
       17
 96
       13
 40
0.0
 40
0.0
 40
0.0
 40
0.0
 40
1.0
 40
1.0
 40
1.0
 40
2.0
 40
2.0
 40
2.0
 40
3.0
 40
3.0
 40
3.0
 40
4.0
 40
4.0
 40
4.0
 40
4.0
 10
926.3686902311143
 20
568.0206148522866
 10
926.3686902311143
 20
566.30581008745
 10
924.989195830572
 20
564.9454042468512
 10
923.2371806951592
 20
564.9454042468512
 10
921.4848812217136
 20
564.9454042468512
 10
920.0868669372937
 20
566.30581008745
 10
920.0868669372937
 20
568.0206148522866
 10
920.0868669372937
 20
569.7354196171243
 10
921.4848812217136
 20
571.0778173823042
 10
923.2555678879553
 20
571.0778173823042
 10
924.989195830572
 20
571.0778173823042
 10
926.3686902311143
 20
569.7354196171243
 10
926.3686902311143
 20
568.0206148522866
 97
        0
 97
        0
 92
        1
 93
        1
 72
     4
 94
        3
 73
     0
 74
     0
 95
       17
 96
       13
 40
0.0
 40
0.0
 40
0.0
 40
0.0
 40
1.0
 40
1.0
 40
1.0
 40
2.0
 40
2.0
 40
2.0
 40
3.0
 40
3.0
 40
3.0
 40
4.0
 40
4.0
 40
4.0
 40
4.0
 10
920.8697064095444
 20
568.0206148522866
 10
920.8697064095444
 20
566.6599246736555
 10
921.8950483121432
 20
565.5789662518161
 10
923.2555678879553
 20
565.5789662518161
 10
924.5791803870931
 20
565.5601620299054
 10
925.5856991119124
 20
566.6599246736555
 10
925.5856991119124
 20
568.0020570566711
 10
925.5856991119124
 20
569.3627472353028
 10
924.5791803870931
 20
570.4627942170857
 10
923.2184902084616
 20
570.4627942170857
 10
921.8950483121432
 20
570.4627942170857
 10
920.8697064095444
 20
569.3627472353028
 10
920.8697064095444
 20
568.0206148522866
 97
        0
 97
        0
 92
        1
 93
        1
 72
     4
 94
        3
 73
     0
 74
     0
 95
       47
 96
       43
 40
0.0
 40
0.0
 40
0.0
 40
0.0
 40
1.0
 40
1.0
 40
1.0
 40
2.0
 40
2.0
 40
2.0
 40
3.0
 40
3.0
 40
3.0
 40
4.0
 40
4.0
 40
4.0
 40
5.0
 40
5.0
 40
5.0
 40
6.0
 40
6.0
 40
6.0
 40
7.0
 40
7.0
 40
7.0
 40
8.0
 40
8.0
 40
8.0
 40
9.0
 40
9.0
 40
9.0
 40
10.0
 40
10.0
 40
10.0
 40
11.0
 40
11.0
 40
11.0
 40
12.0
 40
12.0
 40
12.0
 40
13.0
 40
13.0
 40
13.0
 40
14.0
 40
14.0
 40
14.0
 40
14.0
 10
922.7522895696768
 20
566.4363970680382
 10
922.7522895696768
 20
566.4363970680382
 10
922.0441551766096
 20
566.4363970680382
 10
922.0441551766096
 20
566.4363970680382
 10
922.0441551766096
 20
566.4363970680382
 10
922.0441551766096
 20
569.4933342158915
 10
922.0441551766096
 20
569.4933342158915
 10
922.32375424232
 20
569.5304118953847
 10
922.7149654638877
 20
569.586578134822
 10
923.2184902084616
 20
569.586578134822
 10
923.7961892678917
 20
569.586578134822
 10
924.0570978469039
 20
569.4933342158915
 10
924.2622382597254
 20
569.3439051016546
 10
924.4485934065046
 20
569.2136024590992
 10
924.5791803870931
 20
568.9900748534815
 10
924.5791803870931
 20
568.6917853010737
 10
924.5791803870931
 20
568.3188664929572
 10
924.2994486303008
 20
568.0767810917242
 10
923.9453150882262
 20
567.9649983330468
 10
923.9453150882262
 20
567.9649983330468
 10
923.9453150882262
 20
567.9276363155199
 10
923.9453150882262
 20
567.9276363155199
 10
924.2435667288967
 20
567.8344113524587
 10
924.3927115051004
 20
567.5920226573232
 10
924.4859364681625
 20
567.1820072138447
 10
924.5791803870931
 20
566.7158255309288
 10
924.6536011282442
 20
566.548141914978
 10
924.7096157207304
 20
566.4363970680382
 10
924.7096157207304
 20
566.4363970680382
 10
923.9639866190547
 20
566.4363970680382
 10
923.9639866190547
 20
566.4363970680382
 10
923.8707616559931
 20
566.548141914978
 10
923.8148797545887
 20
566.8090694498594
 10
923.7216358356583
 20
567.1820072138447
 10
923.665734978385
 20
567.4987976942617
 10
923.4792660963922
 20
567.6479424704655
 10
923.0880548748242
 20
567.6479424704655
 10
923.0880548748242
 20
567.6479424704655
 10
922.7522895696768
 20
567.6479424704655
 10
922.7522895696768
 20
567.6479424704655
 10
922.7522895696768
 20
567.6479424704655
 10
922.7522895696768
 20
566.4363970680382
 10
922.7522895696768
 20
566.4363970680382
 97
        0
 97
        0
 92
        1
 93
        1
 72
     4
 94
        3
 73
     0
 74
     0
 95
       20
 96
       16
 40
0.0
 40
0.0
 40
0.0
 40
0.0
 40
1.0
 40
1.0
 40
1.0
 40
2.0
 40
2.0
 40
2.0
 40
3.0
 40
3.0
 40
3.0
 40
4.0
 40
4.0
 40
4.0
 40
5.0
 40
5.0
 40
5.0
 40
5.0
 10
922.771131703325
 20
568.1512018328752
 10
922.771131703325
 20
568.1512018328752
 10
923.106461023489
 20
568.1512018328752
 10
923.106461023489
 20
568.1512018328752
 10
923.4979376272212
 20
568.1512018328752
 10
923.8148797545887
 20
568.2817888134635
 10
923.8148797545887
 20
568.5985603380117
 10
923.8148797545887
 20
568.8782920948042
 10
923.6097203858983
 20
569.0644766387637
 10
923.1623239690243
 20
569.0644766387637
 10
922.9760067339826
 20
569.0644766387637
 10
922.8457040914273
 20
569.0456534609842
 10
922.771131703325
 20
569.0273989592705
 10
922.771131703325
 20
569.0273989592705
 10
922.771131703325
 20
568.1512018328752
 10
922.771131703325
 20
568.1512018328752
 97
        0
 97
        0
 75
     2
 76
     1
 98
        0
450
        0
451
        0
460
0.0
461
0.0
452
        1
462
0.0
453
        0
470

  0
ENDBLK
  5
969
330
955
100
AcDbEntity
  8
0
100
AcDbBlockEnd
  0
ENDSEC
  0
SECTION
  2
ENTITIES
  0
LINE
  5
493
330
847
100
AcDbEntity
  8
0
100
AcDbLine
 10
3986.119798339235
 20
410.2266652830976
 30
0.0
 11
3220.119798339236
 21
410.2266652830976
 31
0.0
  0
LINE
  5
494
330
847
100
AcDbEntity
  8
0
100
AcDbLine
 10
3986.119798339235
 20
-45.63582945958933
 30
0.0
 11
3986.119798339235
 21
410.2266652830976
 31
0.0
  0
LINE
  5
495
330
847
100
AcDbEntity
  8
0
100
AcDbLine
 10
3986.119798339235
 20
-45.63582945958933
 30
0.0
 11
3220.119798339236
 21
-45.63582945960383
 31
0.0
  0
DIMENSION
  5
496
330
847
100
AcDbEntity
  8
梓蛁盄
100
AcDbDimension
280
     0
  2
*D38
 10
4056.196430317156
 20
-45.63582945957478
 30
0.0
 11
4056.196430317156
 21
182.2954179117621
 31
0.0
 71
     5
 42
-1.0
 73
     0
 74
     0
 75
     0
  3
STANDARD
100
AcDbAlignedDimension
 13
3986.119798339235
 23
410.2266652830976
 33
0.0
 14
3986.119798339235
 24
-45.63582945957477
 34
0.0
 50
90.0
100
AcDbRotatedDimension
  0
LINE
  5
76C
330
847
100
AcDbEntity
  8
0
100
AcDbLine
 10
3220.119798339236
 20
-45.63582945960383
 30
0.0
 11
3220.119798339236
 21
410.2266652830976
 31
0.0
  0
DIMENSION
  5
79D
330
847
100
AcDbEntity
  8
梓蛁
100
AcDbDimension
280
     0
  2
*D44
 10
3986.119798339235
 20
-102.60865305983
 30
0.0
 11
3603.119798339236
 21
-102.60865305983
 31
0.0
 71
     5
 42
-1.0
 73
     0
 74
     0
 75
     0
  3
STANDARD
100
AcDbAlignedDimension
 13
3220.119798339236
 23
-45.63582945960383
 33
0.0
 14
3986.119798339235
 24
-45.63582945957477
 34
0.0
100
AcDbRotatedDimension
1001
ACAD
1000
DSTYLE
1002
{
1070
   287
1070
     3
1070
   274
1070
     2
1070
   279
1070
     0
1070
   284
1070
     0
1070
   285
1070
     0
1070
   286
1070
     0
1002
}
  0
INSERT
  5
978
330
847
100
AcDbEntity
  8
0
100
AcDbBlockReference
  2
1.1
 10
2883.194668064538
 20
-152.2455223287579
 30
1629.18920759858
 41
0.9056848720811803
 42
0.9056848720811803
 43
0.9056848720811803
  0
MTEXT
  5
979
102
{ACAD_XDICTIONARY
360
97A
102
}
330
847
100
AcDbEntity
  8
0
 48
0.1
100
AcDbMText
 10
3325.22660690072
 20
294.5665958660356
 30
1629.18920759858
 40
22.12639961839792
 41
568.3107978973716
 46
0.0
 71
     1
 72
     5
  1
\pi208.72574;{\fMontserrat|b0|i0|c0|p0;\H0.56017x;lifewithpearl.com\P\pi233.00346;\H0.72222x;#hometogether}
 73
     1
 44
1.0
1001
ACAD
1000
ACAD_MTEXT_COLUMN_INFO_BEGIN
1070
    75
1070
     2
1070
    79
1070
     0
1070
    76
1070
     1
1070
    78
1070
     0
1070
    48
1040
568.3107978973716
1070
    49
1040
17.21465737619431
1070
    50
1070
     1
1040
57.88938673961816
1000
ACAD_MTEXT_COLUMN_INFO_END
  0
MTEXT
  5
985
330
847
100
AcDbEntity
  8
0
100
AcDbMText
 10
3263.720601220921
 20
88.15929533656982
 30
2999.738826889333
 40
5.0
 41
297.9107459949105
 46
0.0
 71
     1
 72
     5
  3
{\fArial|b0|i0|c0|p34;NOTE:\PDimensions may vary slightly. Please verify the exact size of the sink before cutting. \PThe manufacturer is not responsible for cutting errors.\P\PNOTE:\PLes dimensions peuvent varier légèrement d'un dissipateur à couler
  1
. \PVérifiez la taille exacte de l'évier avant de couper. \Pfabricant n'est pas responsable des erreurs de coupe.\P\P\PThe sink wall is flush to the edge of the countertop opening.}
 73
     1
 44
1.0
  0
MTEXT
  5
986
102
{ACAD_XDICTIONARY
360
987
102
}
330
847
100
AcDbEntity
  8
0
370
    70
100
AcDbMText
 10
3263.284760193506
 20
128.3942082795192
 30
2999.738826889333
 40
5.789340739882582
 41
178.9689617700453
 46
31.24283724073952
 71
     1
 72
     1
  1
{\fAbhaya Libre|b0|i0|c0|p0;\H2.41824x;KESHI - PR\P\fMontserrat|b0|i0|c0|p0;\H0.5x;GBSRR3320C-AP}
 73
     1
 44
1.0
1001
ACAD
1000
ACAD_MTEXT_DEFINED_HEIGHT_BEGIN
1070
    46
1040
6.041922581081321
1000
ACAD_MTEXT_DEFINED_HEIGHT_END
  0
ENDSEC
  0
SECTION
  2
OBJECTS
  0
DICTIONARY
  5
7E8
330
0
100
AcDbDictionary
281
     1
  3
ACAD_CIP_PREVIOUS_PRODUCT_INFO
350
954
  3
ACAD_COLOR
350
83E
  3
ACAD_DETAILVIEWSTYLE
350
94F
  3
ACAD_GROUP
350
7E9
  3
ACAD_LAYOUT
350
83D
  3
ACAD_MATERIAL
350
7EC
  3
ACAD_MLEADERSTYLE
350
841
  3
ACAD_MLINESTYLE
350
83A
  3
ACAD_PLOTSETTINGS
350
83C
  3
ACAD_PLOTSTYLENAME
350
7EA
  3
ACAD_SCALELIST
350
81E
  3
ACAD_SECTIONVIEWSTYLE
350
94D
  3
ACAD_TABLESTYLE
350
83F
  3
ACAD_VISUALSTYLE
350
805
  3
ACDB_RECOMPOSE_DATA
350
9EC
  3
AcDbVariableDictionary
350
8FA
  3
AcDsDecomposeData
350
9F2
  0
DICTIONARY
  5
8DB
330
7DE
100
AcDbDictionary
280
     1
281
     1
  3
ACAD_LAYERSTATES
360
8DC
  0
DICTIONARY
  5
8EB
330
830
100
AcDbDictionary
280
     1
281
     1
  3
ADSK_XREC_LAYER_RECONCILED
360
8EC
  0
DICTIONARY
  5
8ED
330
84B
100
AcDbDictionary
280
     1
281
     1
  3
ADSK_XREC_LAYER_RECONCILED
360
8EE
  0
DICTIONARY
  5
8EF
330
84E
100
AcDbDictionary
280
     1
281
     1
  3
ADSK_XREC_LAYER_RECONCILED
360
8F0
  0
DICTIONARY
  5
96B
330
96A
100
AcDbDictionary
280
     1
281
     1
  0
DICTIONARY
  5
8C2
330
8C1
100
AcDbDictionary
280
     1
281
     1
  3
ACAD_ENHANCEDBLOCK
360
8C3
  3
AcDbDynamicBlockRoundTripPurgePreventer
360
8C4
  0
DICTIONARY
  5
956
330
955
100
AcDbDictionary
280
     1
281
     1
  0
DICTIONARY
  5
97A
330
979
100
AcDbDictionary
280
     1
281
     1
  3
ACAD_MTEXT_2008_RT
360
9EA
  0
DICTIONARY
  5
987
330
986
100
AcDbDictionary
280
     1
281
     1
  3
ACAD_MTEXT_2008_RT
360
9EB
  0
XRECORD
  5
954
102
{ACAD_REACTORS
330
7E8
102
}
330
7E8
100
AcDbXrecord
280
     1
300
ACDMAC
300
2022
300

  0
DICTIONARY
  5
83E
102
{ACAD_REACTORS
330
7E8
102
}
330
7E8
100
AcDbDictionary
281
     1
  0
DICTIONARY
  5
94F
102
{ACAD_REACTORS
330
7E8
102
}
330
7E8
100
AcDbDictionary
281
     1
  3
Imperial24
350
950
  0
DICTIONARY
  5
7E9
102
{ACAD_REACTORS
330
7E8
102
}
330
7E8
100
AcDbDictionary
281
     1
  0
DICTIONARY
  5
83D
102
{ACAD_REACTORS
330
7E8
102
}
330
7E8
100
AcDbDictionary
281
     1
  3
Layout1
350
846
  3
Model
350
84A
  0
DICTIONARY
  5
7EC
102
{ACAD_REACTORS
330
7E8
102
}
330
7E8
100
AcDbDictionary
281
     1
  3
ByBlock
350
7F5
  3
ByLayer
350
7ED
  3
Global
350
7FD
  0
DICTIONARY
  5
841
102
{ACAD_REACTORS
330
7E8
102
}
330
7E8
100
AcDbDictionary
281
     1
  3
Standard
350
842
  0
DICTIONARY
  5
83A
102
{ACAD_REACTORS
330
7E8
102
}
330
7E8
100
AcDbDictionary
281
     1
  3
Standard
350
83B
  0
DICTIONARY
  5
83C
102
{ACAD_REACTORS
330
7E8
102
}
330
7E8
100
AcDbDictionary
281
     1
  0
ACDBDICTIONARYWDFLT
  5
7EA
102
{ACAD_REACTORS
330
7E8
102
}
330
7E8
100
AcDbDictionary
281
     1
  3
Normal
350
7EB
100
AcDbDictionaryWithDefault
340
7EB
  0
DICTIONARY
  5
81E
102
{ACAD_REACTORS
330
7E8
102
}
330
7E8
100
AcDbDictionary
281
     1
  3
A0
350
81F
  3
A1
350
820
  3
A2
350
821
  3
A3
350
822
  3
A4
350
823
  3
A5
350
824
  3
A6
350
825
  3
A7
350
826
  3
A8
350
827
  3
A9
350
828
  3
B0
350
829
  3
B1
350
82A
  3
B2
350
82B
  3
B3
350
82C
  3
B4
350
82D
  3
B5
350
82E
  3
B6
350
82F
  0
DICTIONARY
  5
94D
102
{ACAD_REACTORS
330
7E8
102
}
330
7E8
100
AcDbDictionary
281
     1
  3
Imperial24
350
94E
  0
DICTIONARY
  5
83F
102
{ACAD_REACTORS
330
7E8
102
}
330
7E8
100
AcDbDictionary
281
     1
  3
Standard
350
840
  0
DICTIONARY
  5
805
102
{ACAD_REACTORS
330
7E8
102
}
330
7E8
100
AcDbDictionary
281
     1
  3
2dWireframe
350
80B
  3
3dWireframe
350
8DA
  3
Basic
350
80A
  3
Brighten
350
811
  3
ColorChange
350
815
  3
Conceptual
350
80E
  3
Dim
350
810
  3
EdgeColorOff
350
81D
  3
Facepattern
350
814
  3
Flat
350
806
  3
FlatWithEdges
350
807
  3
Gouraud
350
808
  3
GouraudWithEdges
350
809
  3
Hidden
350
80D
  3
JitterOff
350
81B
  3
Linepattern
350
813
  3
OverhangOff
350
81C
  3
Realistic
350
80F
  3
Shaded
350
81A
  3
Shaded with edges
350
819
  3
Shades of Gray
350
816
  3
Sketchy
350
817
  3
Thicken
350
812
  3
Wireframe
350
80C
  3
X-Ray
350
818
  0
XRECORD
  5
9EC
102
{ACAD_REACTORS
330
7E8
102
}
330
7E8
100
AcDbXrecord
280
     1
 90
        1
330
840
330
8CA
330
8CB
330
8CD
330
979
330
986
  0
DICTIONARY
  5
8FA
102
{ACAD_REACTORS
330
7E8
102
}
330
7E8
100
AcDbDictionary
281
     1
  3
CANNOSCALE
350
8FD
  3
CMLEADERSTYLE
350
8FC
  3
CTABLESTYLE
350
8FB
  3
CVIEWDETAILSTYLE
350
990
  3
CVIEWSECTIONSTYLE
350
991
  3
DIMASSOC
350
900
  3
INDEXCTL
350
8FF
  3
LAYEREVAL
350
994
  3
LAYERNOTIFY
350
995
  3
LIGHTINGUNITS
350
993
  3
MSLTSCALE
350
992
  3
SORTENTS
350
8FE
  0
DICTIONARY
  5
9F2
102
{ACAD_REACTORS
330
7E8
102
}
330
7E8
100
AcDbDictionary
281
     1
  3
AcDsRecords
350
9F4
  3
AcDsSchemas
350
9F3
1001
ACAD
1070
     2
  0
DICTIONARY
  5
8DC
102
{ACAD_REACTORS
330
8DB
102
}
330
8DB
100
AcDbDictionary
281
     1
  0
XRECORD
  5
8EC
102
{ACAD_REACTORS
330
8EB
102
}
330
8EB
100
AcDbXrecord
280
     1
290
     1
  0
XRECORD
  5
8EE
102
{ACAD_REACTORS
330
8ED
102
}
330
8ED
100
AcDbXrecord
280
     1
290
     1
  0
XRECORD
  5
8F0
102
{ACAD_REACTORS
330
8EF
102
}
330
8EF
100
AcDbXrecord
280
     1
290
     1
  0
ACAD_EVALUATION_GRAPH
  5
8C3
102
{ACAD_REACTORS
330
8C2
102
}
330
8C2
100
AcDbEvalGraph
 96
        0
 97
        0
  0
ACDB_DYNAMICBLOCKPURGEPREVENTER_VERSION
  5
8C4
102
{ACAD_REACTORS
330
8C2
102
}
330
8C2
100
AcDbDynamicBlockPurgePreventer
 70
     1
  0
XRECORD
  5
9EA
102
{ACAD_REACTORS
330
97A
102
}
330
97A
100
AcDbXrecord
280
     1
 40
486289.0
  1
\pxqc;{\fMontserrat|b0|i0|c0|p0;\H0.56017x;lifewithpearl.com\P\H0.72222x;#hometogether}
  0
XRECORD
  5
9EB
102
{ACAD_REACTORS
330
987
102
}
330
987
100
AcDbXrecord
280
     1
 40
377948.0
  1
\pxql;{\fAbhaya Libre|b0|i0|c0|p0;\H2.41824x;KESHI - PR\P\fMontserrat|b0|i0|c0|p0;\H0.5x;GBSRR3320C-AP}
  0
ACDBDETAILVIEWSTYLE
  5
950
102
{ACAD_XDICTIONARY
360
A29
102
}
102
{ACAD_REACTORS
330
94F
102
}
330
94F
100
AcDbModelDocViewStyle
 70
     0
  3
Imperial24
290
     0
100
AcDbDetailViewStyle
 70
     0
 71
     0
 90
        3
 71
     1
340
831
 62
   256
 40
0.24
340
0
 62
   256
 40
0.24
300

 40
0.36
280
     3
 71
     2
340
838
 90
       25
 62
   256
 71
     3
340
831
 62
   256
 40
0.24
 90
        1
 40
0.75
 90
        1
300
%<\AcVar ViewType \f "%tc1">% %<\AcVar ViewDetailId>%\PSCALE %<\AcVar ViewScale \f "%sn">%
 71
     4
340
838
 90
       25
 62
   256
340
838
 90
       25
 62
   256
280
     0
  0
LAYOUT
  5
846
102
{ACAD_REACTORS
330
83D
102
}
330
83D
100
AcDbPlotSettings
  1

  2
Canon iR5020/iR6020 PCL
  4

  6

 40
0.0
 41
0.0
 42
0.0
 43
0.0
 44
0.0
 45
0.0
 46
0.0
 47
0.0
 48
0.0
 49
0.0
140
0.0
141
0.0
142
1.0
143
1.0
 70
   688
 72
     0
 73
     0
 74
     5
  7

 75
    16
147
1.0
 76
     0
 77
     2
 78
   300
148
0.0
149
0.0
100
AcDbLayout
  1
Layout1
 70
     1
 71
     1
 10
0.0
 20
0.0
 11
420.0
 21
297.0
 12
0.0
 22
0.0
 32
0.0
 14
1.000000000000000E+20
 24
1.000000000000000E+20
 34
1.000000000000000E+20
 15
-1.000000000000000E+20
 25
-1.000000000000000E+20
 35
-1.000000000000000E+20
146
0.0
 13
0.0
 23
0.0
 33
0.0
 16
1.0
 26
0.0
 36
0.0
 17
0.0
 27
1.0
 37
0.0
 76
     0
330
843
  0
LAYOUT
  5
84A
102
{ACAD_REACTORS
330
83D
102
}
330
83D
100
AcDbPlotSettings
  1

  2
Canon iR5020/iR6020 PCL
  4

  6

 40
0.0
 41
0.0
 42
0.0
 43
0.0
 44
0.0
 45
0.0
 46
0.0
 47
0.0
 48
0.0
 49
0.0
140
0.0
141
0.0
142
1.0
143
1.0
 70
  1712
 72
     0
 73
     0
 74
     0
  7

 75
     0
147
1.0
 76
     0
 77
     2
 78
   300
148
0.0
149
0.0
100
AcDbLayout
  1
Model
 70
     1
 71
     0
 10
0.0
 20
0.0
 11
12.0
 21
9.0
 12
0.0
 22
0.0
 32
0.0
 14
0.0
 24
0.0
 34
0.0
 15
0.0
 25
0.0
 35
0.0
146
0.0
 13
0.0
 23
0.0
 33
0.0
 16
1.0
 26
0.0
 36
0.0
 17
0.0
 27
1.0
 37
0.0
 76
     0
330
847
331
84C
  0
MATERIAL
  5
7F5
102
{ACAD_XDICTIONARY
360
7F6
102
}
102
{ACAD_REACTORS
330
7EC
102
}
330
7EC
100
AcDbMaterial
  1
ByBlock
 72
     0
 43
0.0208333333333333
 43
0.0
 43
0.0
 43
0.0
 43
0.0
 43
0.0208333333333333
 43
0.0
 43
0.0
 43
0.0
 43
0.0
 43
1.0
 43
0.0
 43
0.0
 43
0.0
 43
0.0
 43
1.0
 77
     0
 47
0.0208333333333333
 47
0.0
 47
0.0
 47
0.0
 47
0.0
 47
0.0208333333333333
 47
0.0
 47
0.0
 47
0.0
 47
0.0
 47
1.0
 47
0.0
 47
0.0
 47
0.0
 47
0.0
 47
1.0
171
     0
 49
0.0208333333333333
 49
0.0
 49
0.0
 49
0.0
 49
0.0
 49
0.0208333333333333
 49
0.0
 49
0.0
 49
0.0
 49
0.0
 49
1.0
 49
0.0
 49
0.0
 49
0.0
 49
0.0
 49
1.0
175
     0
142
0.0208333333333333
142
0.0
142
0.0
142
0.0
142
0.0
142
0.0208333333333333
142
0.0
142
0.0
142
0.0
142
0.0
142
1.0
142
0.0
142
0.0
142
0.0
142
0.0
142
1.0
179
     0
144
0.0208333333333333
144
0.0
144
0.0
144
0.0
144
0.0
144
0.0208333333333333
144
0.0
144
0.0
144
0.0
144
0.0
144
1.0
144
0.0
144
0.0
144
0.0
144
0.0
144
1.0
147
0.0208333333333333
147
0.0
147
0.0
147
0.0
147
0.0
147
0.0208333333333333
147
0.0
147
0.0
147
0.0
147
0.0
147
1.0
147
0.0
147
0.0
147
0.0
147
0.0
147
1.0
  0
MATERIAL
  5
7ED
102
{ACAD_XDICTIONARY
360
7EE
102
}
102
{ACAD_REACTORS
330
7EC
102
}
330
7EC
100
AcDbMaterial
  1
ByLayer
 72
     0
 43
0.0208333333333333
 43
0.0
 43
0.0
 43
0.0
 43
0.0
 43
0.0208333333333333
 43
0.0
 43
0.0
 43
0.0
 43
0.0
 43
1.0
 43
0.0
 43
0.0
 43
0.0
 43
0.0
 43
1.0
 77
     0
 47
0.0208333333333333
 47
0.0
 47
0.0
 47
0.0
 47
0.0
 47
0.0208333333333333
 47
0.0
 47
0.0
 47
0.0
 47
0.0
 47
1.0
 47
0.0
 47
0.0
 47
0.0
 47
0.0
 47
1.0
171
     0
 49
0.0208333333333333
 49
0.0
 49
0.0
 49
0.0
 49
0.0
 49
0.0208333333333333
 49
0.0
 49
0.0
 49
0.0
 49
0.0
 49
1.0
 49
0.0
 49
0.0
 49
0.0
 49
0.0
 49
1.0
175
     0
142
0.0208333333333333
142
0.0
142
0.0
142
0.0
142
0.0
142
0.0208333333333333
142
0.0
142
0.0
142
0.0
142
0.0
142
1.0
142
0.0
142
0.0
142
0.0
142
0.0
142
1.0
179
     0
144
0.0208333333333333
144
0.0
144
0.0
144
0.0
144
0.0
144
0.0208333333333333
144
0.0
144
0.0
144
0.0
144
0.0
144
1.0
144
0.0
144
0.0
144
0.0
144
0.0
144
1.0
147
0.0208333333333333
147
0.0
147
0.0
147
0.0
147
0.0
147
0.0208333333333333
147
0.0
147
0.0
147
0.0
147
0.0
147
1.0
147
0.0
147
0.0
147
0.0
147
0.0
147
1.0
  0
MATERIAL
  5
7FD
102
{ACAD_XDICTIONARY
360
7FE
102
}
102
{ACAD_REACTORS
330
7EC
102
}
330
7EC
100
AcDbMaterial
  1
Global
 72
     0
 43
0.0208333333333333
 43
0.0
 43
0.0
 43
0.0
 43
0.0
 43
0.0208333333333333
 43
0.0
 43
0.0
 43
0.0
 43
0.0
 43
1.0
 43
0.0
 43
0.0
 43
0.0
 43
0.0
 43
1.0
 77
     0
 47
0.0208333333333333
 47
0.0
 47
0.0
 47
0.0
 47
0.0
 47
0.0208333333333333
 47
0.0
 47
0.0
 47
0.0
 47
0.0
 47
1.0
 47
0.0
 47
0.0
 47
0.0
 47
0.0
 47
1.0
171
     0
 49
0.0208333333333333
 49
0.0
 49
0.0
 49
0.0
 49
0.0
 49
0.0208333333333333
 49
0.0
 49
0.0
 49
0.0
 49
0.0
 49
1.0
 49
0.0
 49
0.0
 49
0.0
 49
0.0
 49
1.0
175
     0
142
0.0208333333333333
142
0.0
142
0.0
142
0.0
142
0.0
142
0.0208333333333333
142
0.0
142
0.0
142
0.0
142
0.0
142
1.0
142
0.0
142
0.0
142
0.0
142
0.0
142
1.0
179
     0
144
0.0208333333333333
144
0.0
144
0.0
144
0.0
144
0.0
144
0.0208333333333333
144
0.0
144
0.0
144
0.0
144
0.0
144
1.0
144
0.0
144
0.0
144
0.0
144
0.0
144
1.0
147
0.0208333333333333
147
0.0
147
0.0
147
0.0
147
0.0
147
0.0208333333333333
147
0.0
147
0.0
147
0.0
147
0.0
147
1.0
147
0.0
147
0.0
147
0.0
147
0.0
147
1.0
  0
MLEADERSTYLE
  5
842
102
{ACAD_REACTORS
330
841
102
}
330
841
100
AcDbMLeaderStyle
179
     2
170
     2
171
     1
172
     0
 90
        2
 40
0.0
 41
0.0
173
     1
 91
-1056964608
340
836
 92
       -2
290
     1
 42
0.09
291
     1
 43
0.36
  3
Standard
 44
0.18
300

342
831
174
     1
178
     6
175
     1
176
     0
 93
-1056964608
 45
0.18
292
     0
297
     0
 46
0.18
 94
-1056964608
 47
1.0
 49
1.0
140
1.0
293
     1
141
0.0
294
     1
177
     0
142
1.0
295
     0
296
     0
143
0.125
271
     0
272
     9
273
     9
1001
ACAD_MLEADERVER
1070
     2
  0
MLINESTYLE
  5
83B
102
{ACAD_REACTORS
330
83A
102
}
330
83A
100
AcDbMlineStyle
  2
STANDARD
 70
     0
  3

 62
   256
 51
90.0
 52
90.0
 71
     2
 49
0.5
 62
   256
  6
BYLAYER
 49
-0.5
 62
   256
  6
BYLAYER
  0
ACDBPLACEHOLDER
  5
7EB
102
{ACAD_REACTORS
330
7EA
102
}
330
7EA
  0
SCALE
  5
81F
102
{ACAD_REACTORS
330
81E
102
}
330
81E
100
AcDbScale
 70
     0
300
1:1
140
1.0
141
1.0
290
     1
  0
SCALE
  5
820
102
{ACAD_REACTORS
330
81E
102
}
330
81E
100
AcDbScale
 70
     0
300
1/128" = 1'-0"
140
0.0078125
141
12.0
290
     0
  0
SCALE
  5
821
102
{ACAD_REACTORS
330
81E
102
}
330
81E
100
AcDbScale
 70
     0
300
1/64" = 1'-0"
140
0.015625
141
12.0
290
     0
  0
SCALE
  5
822
102
{ACAD_REACTORS
330
81E
102
}
330
81E
100
AcDbScale
 70
     0
300
1/32" = 1'-0"
140
0.03125
141
12.0
290
     0
  0
SCALE
  5
823
102
{ACAD_REACTORS
330
81E
102
}
330
81E
100
AcDbScale
 70
     0
300
1/16" = 1'-0"
140
0.0625
141
12.0
290
     0
  0
SCALE
  5
824
102
{ACAD_REACTORS
330
81E
102
}
330
81E
100
AcDbScale
 70
     0
300
3/32" = 1'-0"
140
0.09375
141
12.0
290
     0
  0
SCALE
  5
825
102
{ACAD_REACTORS
330
81E
102
}
330
81E
100
AcDbScale
 70
     0
300
1/8" = 1'-0"
140
0.125
141
12.0
290
     0
  0
SCALE
  5
826
102
{ACAD_REACTORS
330
81E
102
}
330
81E
100
AcDbScale
 70
     0
300
3/16" = 1'-0"
140
0.1875
141
12.0
290
     0
  0
SCALE
  5
827
102
{ACAD_REACTORS
330
81E
102
}
330
81E
100
AcDbScale
 70
     0
300
1/4" = 1'-0"
140
0.25
141
12.0
290
     0
  0
SCALE
  5
828
102
{ACAD_REACTORS
330
81E
102
}
330
81E
100
AcDbScale
 70
     0
300
3/8" = 1'-0"
140
0.375
141
12.0
290
     0
  0
SCALE
  5
829
102
{ACAD_REACTORS
330
81E
102
}
330
81E
100
AcDbScale
 70
     0
300
1/2" = 1'-0"
140
0.5
141
12.0
290
     0
  0
SCALE
  5
82A
102
{ACAD_REACTORS
330
81E
102
}
330
81E
100
AcDbScale
 70
     0
300
3/4" = 1'-0"
140
0.75
141
12.0
290
     0
  0
SCALE
  5
82B
102
{ACAD_REACTORS
330
81E
102
}
330
81E
100
AcDbScale
 70
     0
300
1" = 1'-0"
140
1.0
141
12.0
290
     0
  0
SCALE
  5
82C
102
{ACAD_REACTORS
330
81E
102
}
330
81E
100
AcDbScale
 70
     0
300
1-1/2" = 1'-0"
140
1.5
141
12.0
290
     0
  0
SCALE
  5
82D
102
{ACAD_REACTORS
330
81E
102
}
330
81E
100
AcDbScale
 70
     0
300
3" = 1'-0"
140
3.0
141
12.0
290
     0
  0
SCALE
  5
82E
102
{ACAD_REACTORS
330
81E
102
}
330
81E
100
AcDbScale
 70
     0
300
6" = 1'-0"
140
6.0
141
12.0
290
     0
  0
SCALE
  5
82F
102
{ACAD_REACTORS
330
81E
102
}
330
81E
100
AcDbScale
 70
     0
300
1'-0" = 1'-0"
140
12.0
141
12.0
290
     0
  0
ACDBSECTIONVIEWSTYLE
  5
94E
102
{ACAD_XDICTIONARY
360
A27
102
}
102
{ACAD_REACTORS
330
94D
102
}
330
94D
100
AcDbModelDocViewStyle
 70
     0
  3
Imperial24
290
     0
100
AcDbSectionViewStyle
 70
     0
 71
     0
 90
       78
 71
     1
340
831
 62
   256
 40
0.24
340
0
340
0
 62
   256
 40
0.24
300
I, O, Q, S, X, Z
 40
0.48
 90
        3
 40
0.18
 90
        1
 71
     2
340
838
 90
       25
 62
   256
340
838
 90
       50
 62
   256
 40
0.24
 40
0.0
 40
0.24
 71
     3
340
831
 62
   256
 40
0.24
 90
        1
 40
0.75
 90
        1
300
%<\AcVar ViewType \f "%tc1">% %<\AcVar ViewSectionStartId>%-%<\AcVar ViewSectionEndId>%\PSCALE %<\AcVar ViewScale \f "%sn">%
 71
     4
 62
   256
 62
   257
300
ANSI31
 40
1.0
 90
        0
290
     0
290
     0
 90
        6
 40
0.0
 40
1.570796326794896
 40
0.2617993877991494
 40
1.308996938995747
 40
-0.2617993877991494
 40
1.832595714594045
  0
TABLESTYLE
  5
840
102
{ACAD_XDICTIONARY
360
902
102
}
102
{ACAD_REACTORS
330
83F
102
}
330
83F
100
AcDbTableStyle
280
     0
  3
Standard
 70
     0
 71
     0
 40
0.06
 41
0.06
280
     0
281
     0
  7
STANDARD
140
0.18
170
     2
 62
     0
 63
     7
283
     0
 90
      512
 91
        0
  1

274
    -2
284
     1
 64
     0
275
    -2
285
     1
 65
     0
276
    -2
286
     1
 66
     0
277
    -2
287
     1
 67
     0
278
    -2
288
     1
 68
     0
279
    -2
289
     1
 69
     0
  7
STANDARD
140
0.25
170
     5
 62
     0
 63
     7
283
     0
 90
      512
 91
        0
  1

274
    -2
284
     1
 64
     0
275
    -2
285
     1
 65
     0
276
    -2
286
     1
 66
     0
277
    -2
287
     1
 67
     0
278
    -2
288
     1
 68
     0
279
    -2
289
     1
 69
     0
  7
STANDARD
140
0.18
170
     5
 62
     0
 63
     7
283
     0
 90
      512
 91
        0
  1

274
    -2
284
     1
 64
     0
275
    -2
285
     1
 65
     0
276
    -2
286
     1
 66
     0
277
    -2
287
     1
 67
     0
278
    -2
288
     1
 68
     0
279
    -2
289
     1
 69
     0
  0
VISUALSTYLE
  5
80B
102
{ACAD_XDICTIONARY
360
9FF
102
}
102
{ACAD_REACTORS
330
805
102
}
330
805
100
AcDbVisualStyle
  2

 70
     4
177
     2
291
     0
 71
     0
176
     1
 72
     2
176
     1
 73
     0
176
     1
 90
        0
176
     1
 40
0.6
176
     1
 41
30.0
176
     1
 63
     7
176
     1
 74
     1
176
     1
 91
        4
176
     1
 64
     7
176
     1
 65
   257
176
     1
 75
     1
176
     1
175
     1
176
     1
 42
1.0
176
     1
 92
        0
176
     1
 66
   257
176
     1
 43
1.0
176
     1
 76
     1
176
     1
 77
     6
176
     1
 78
     2
176
     1
 67
     7
176
     1
 79
     5
176
     1
170
     0
176
     1
171
     0
176
     1
290
     0
176
     1
 93
        1
176
     1
 44
0.0
176
     1
173
     0
176
     1
1001
ACAD
1000
AcDbSavedByObjectVersion
1070
     0
  0
VISUALSTYLE
  5
8DA
102
{ACAD_XDICTIONARY
360
A25
102
}
102
{ACAD_REACTORS
330
805
102
}
330
805
100
AcDbVisualStyle
  2

 70
     5
177
     2
291
     0
 71
     0
176
     1
 72
     2
176
     1
 73
     0
176
     1
 90
        0
176
     1
 40
0.6
176
     1
 41
30.0
176
     1
 63
     7
176
     1
 74
     1
176
     1
 91
        4
176
     1
 64
     7
176
     1
 65
   257
176
     1
 75
     1
176
     1
175
     1
176
     1
 42
1.0
176
     1
 92
        0
176
     1
 66
   257
176
     1
 43
1.0
176
     1
 76
     1
176
     1
 77
     6
176
     1
 78
     2
176
     1
 67
     7
176
     1
 79
     5
176
     1
170
     0
176
     1
171
     0
176
     1
290
     0
176
     1
 93
        1
176
     1
 44
0.0
176
     1
173
     0
176
     1
1001
ACAD
1000
AcDbSavedByObjectVersion
1070
     0
  0
VISUALSTYLE
  5
80A
102
{ACAD_XDICTIONARY
360
9FD
102
}
102
{ACAD_REACTORS
330
805
102
}
330
805
100
AcDbVisualStyle
  2

 70
     7
177
     2
291
     1
 71
     1
176
     1
 72
     0
176
     1
 73
     1
176
     1
 90
        0
176
     1
 40
0.6
176
     1
 41
30.0
176
     1
 63
     7
176
     1
 74
     0
176
     1
 91
        4
176
     1
 64
     7
176
     1
 65
   257
176
     1
 75
     1
176
     1
175
     1
176
     1
 42
1.0
176
     1
 92
        8
176
     1
 66
     7
176
     1
 43
1.0
176
     1
 76
     1
176
     1
 77
     6
176
     1
 78
     2
176
     1
 67
     7
176
     1
 79
     5
176
     1
170
     0
176
     1
171
     0
176
     1
290
     0
176
     1
 93
        1
176
     1
 44
0.0
176
     1
173
     0
176
     1
1001
ACAD
1000
AcDbSavedByObjectVersion
1070
     0
  0
VISUALSTYLE
  5
811
102
{ACAD_XDICTIONARY
360
A0B
102
}
102
{ACAD_REACTORS
330
805
102
}
330
805
100
AcDbVisualStyle
  2

 70
    12
177
     2
291
     1
 71
     2
176
     1
 72
     2
176
     1
 73
     0
176
     1
 90
        0
176
     1
 40
0.6
176
     1
 41
30.0
176
     1
 63
     7
176
     1
 74
     1
176
     1
 91
        4
176
     1
 64
     7
176
     1
 65
   257
176
     1
 75
     1
176
     1
175
     1
176
     1
 42
1.0
176
     1
 92
        8
176
     1
 66
     7
176
     1
 43
1.0
176
     1
 76
     1
176
     1
 77
     6
176
     1
 78
     2
176
     1
 67
     7
176
     1
 79
     5
176
     1
170
     0
176
     1
171
     0
176
     1
290
     0
176
     1
 93
        1
176
     1
 44
50.0
176
     1
173
     0
176
     1
1001
ACAD
1000
AcDbSavedByObjectVersion
1070
     0
  0
VISUALSTYLE
  5
815
102
{ACAD_XDICTIONARY
360
A13
102
}
102
{ACAD_REACTORS
330
805
102
}
330
805
100
AcDbVisualStyle
  2

 70
    16
177
     2
291
     1
 71
     2
176
     1
 72
     2
176
     1
 73
     3
176
     1
 90
        0
176
     1
 40
0.6
176
     1
 41
30.0
176
     1
 63
     8
176
     1
 74
     1
176
     1
 91
        4
176
     1
 64
     7
176
     1
 65
   257
176
     1
 75
     1
176
     1
175
     1
176
     1
 42
1.0
176
     1
 92
        8
176
     1
 66
     8
176
     1
 43
1.0
176
     1
 76
     1
176
     1
 77
     6
176
     1
 78
     2
176
     1
 67
     7
176
     1
 79
     5
176
     1
170
     0
176
     1
171
     0
176
     1
290
     0
176
     1
 93
        1
176
     1
 44
0.0
176
     1
173
     0
176
     1
1001
ACAD
1000
AcDbSavedByObjectVersion
1070
     0
  0
VISUALSTYLE
  5
80E
102
{ACAD_XDICTIONARY
360
A05
102
}
102
{ACAD_REACTORS
330
805
102
}
330
805
100
AcDbVisualStyle
  2

 70
     9
177
     2
291
     0
 71
     3
176
     1
 72
     2
176
     1
 73
     0
176
     1
 90
        0
176
     1
 40
0.6
176
     1
 41
30.0
176
     1
 63
     7
176
     1
 74
     2
176
     1
 91
        2
176
     1
 64
     7
176
     1
 65
   257
176
     1
 75
     1
176
     1
175
     1
176
     1
 42
179.0
176
     1
 92
        8
176
     1
 66
     7
176
     1
 43
1.0
176
     1
 76
     1
176
     1
 77
     6
176
     1
 78
     2
176
     1
 67
     7
176
     1
 79
     3
176
     1
170
     0
176
     1
171
     0
176
     1
290
     0
176
     1
 93
        1
176
     1
 44
0.0
176
     1
173
     0
176
     1
1001
ACAD
1000
AcDbSavedByObjectVersion
1070
     0
  0
VISUALSTYLE
  5
810
102
{ACAD_XDICTIONARY
360
A09
102
}
102
{ACAD_REACTORS
330
805
102
}
330
805
100
AcDbVisualStyle
  2

 70
    11
177
     2
291
     1
 71
     2
176
     1
 72
     2
176
     1
 73
     0
176
     1
 90
        0
176
     1
 40
0.6
176
     1
 41
30.0
176
     1
 63
     7
176
     1
 74
     1
176
     1
 91
        4
176
     1
 64
     7
176
     1
 65
   257
176
     1
 75
     1
176
     1
175
     1
176
     1
 42
1.0
176
     1
 92
        8
176
     1
 66
     7
176
     1
 43
1.0
176
     1
 76
     1
176
     1
 77
     6
176
     1
 78
     2
176
     1
 67
     7
176
     1
 79
     5
176
     1
170
     0
176
     1
171
     0
176
     1
290
     0
176
     1
 93
        1
176
     1
 44
-50.0
176
     1
173
     0
176
     1
1001
ACAD
1000
AcDbSavedByObjectVersion
1070
     0
  0
VISUALSTYLE
  5
81D
102
{ACAD_XDICTIONARY
360
A23
102
}
102
{ACAD_REACTORS
330
805
102
}
330
805
100
AcDbVisualStyle
  2

 70
    22
177
     2
291
     1
 71
     2
176
     0
 72
     2
176
     0
 73
     0
176
     0
 90
        0
176
     0
 40
0.6
176
     0
 41
30.0
176
     0
 63
     7
176
     0
 74
     1
176
     0
 91
        4
176
     0
 64
     7
176
     0
 65
   257
176
     0
 75
     1
176
     0
175
     1
176
     0
 42
1.0
176
     0
 92
        8
176
     2
 66
     7
176
     0
 43
1.0
176
     0
 76
     1
176
     0
 77
     6
176
     0
 78
     2
176
     0
 67
     7
176
     0
 79
     5
176
     0
170
     0
176
     0
171
     0
176
     0
290
     0
176
     0
 93
        1
176
     0
 44
0.0
176
     0
173
     0
176
     0
1001
ACAD
1000
AcDbSavedByObjectVersion
1070
     0
  0
VISUALSTYLE
  5
814
102
{ACAD_XDICTIONARY
360
A11
102
}
102
{ACAD_REACTORS
330
805
102
}
330
805
100
AcDbVisualStyle
  2

 70
    15
177
     2
291
     1
 71
     2
176
     1
 72
     2
176
     1
 73
     0
176
     1
 90
        0
176
     1
 40
0.6
176
     1
 41
30.0
176
     1
 63
     7
176
     1
 74
     1
176
     1
 91
        4
176
     1
 64
     7
176
     1
 65
   257
176
     1
 75
     1
176
     1
175
     1
176
     1
 42
1.0
176
     1
 92
        8
176
     1
 66
     7
176
     1
 43
1.0
176
     1
 76
     1
176
     1
 77
     6
176
     1
 78
     2
176
     1
 67
     7
176
     1
 79
     5
176
     1
170
     0
176
     1
171
     0
176
     1
290
     0
176
     1
 93
        1
176
     1
 44
0.0
176
     1
173
     0
176
     1
1001
ACAD
1000
AcDbSavedByObjectVersion
1070
     0
  0
VISUALSTYLE
  5
806
102
{ACAD_XDICTIONARY
360
9F5
102
}
102
{ACAD_REACTORS
330
805
102
}
330
805
100
AcDbVisualStyle
  2

 70
     0
177
     2
291
     1
 71
     2
176
     1
 72
     1
176
     1
 73
     1
176
     1
 90
        2
176
     1
 40
0.6
176
     1
 41
30.0
176
     1
 63
     7
176
     1
 74
     0
176
     1
 91
        0
176
     1
 64
     7
176
     1
 65
   257
176
     1
 75
     1
176
     1
175
     1
176
     1
 42
1.0
176
     1
 92
        8
176
     1
 66
     7
176
     1
 43
1.0
176
     1
 76
     1
176
     1
 77
     6
176
     1
 78
     2
176
     1
 67
     7
176
     1
 79
     5
176
     1
170
     0
176
     1
171
     0
176
     1
290
     0
176
     1
 93
       13
176
     1
 44
0.0
176
     1
173
     0
176
     1
1001
ACAD
1000
AcDbSavedByObjectVersion
1070
     0
  0
VISUALSTYLE
  5
807
102
{ACAD_XDICTIONARY
360
9F7
102
}
102
{ACAD_REACTORS
330
805
102
}
330
805
100
AcDbVisualStyle
  2

 70
     1
177
     2
291
     1
 71
     2
176
     1
 72
     1
176
     1
 73
     1
176
     1
 90
        2
176
     1
 40
0.6
176
     1
 41
30.0
176
     1
 63
     7
176
     1
 74
     1
176
     1
 91
        0
176
     1
 64
     7
176
     1
 65
   257
176
     1
 75
     1
176
     1
175
     1
176
     1
 42
1.0
176
     1
 92
        0
176
     1
 66
   257
176
     1
 43
1.0
176
     1
 76
     1
176
     1
 77
     6
176
     1
 78
     2
176
     1
 67
     7
176
     1
 79
     5
176
     1
170
     0
176
     1
171
     0
176
     1
290
     0
176
     1
 93
       13
176
     1
 44
0.0
176
     1
173
     0
176
     1
1001
ACAD
1000
AcDbSavedByObjectVersion
1070
     0
  0
VISUALSTYLE
  5
808
102
{ACAD_XDICTIONARY
360
9F9
102
}
102
{ACAD_REACTORS
330
805
102
}
330
805
100
AcDbVisualStyle
  2

 70
     2
177
     2
291
     1
 71
     2
176
     1
 72
     2
176
     1
 73
     1
176
     1
 90
        2
176
     1
 40
0.6
176
     1
 41
30.0
176
     1
 63
     7
176
     1
 74
     0
176
     1
 91
        0
176
     1
 64
     7
176
     1
 65
   257
176
     1
 75
     1
176
     1
175
     1
176
     1
 42
1.0
176
     1
 92
        0
176
     1
 66
     7
176
     1
 43
1.0
176
     1
 76
     1
176
     1
 77
     6
176
     1
 78
     2
176
     1
 67
     7
176
     1
 79
     5
176
     1
170
     0
176
     1
171
     0
176
     1
290
     0
176
     1
 93
       13
176
     1
 44
0.0
176
     1
173
     0
176
     1
1001
ACAD
1000
AcDbSavedByObjectVersion
1070
     0
  0
VISUALSTYLE
  5
809
102
{ACAD_XDICTIONARY
360
9FB
102
}
102
{ACAD_REACTORS
330
805
102
}
330
805
100
AcDbVisualStyle
  2

 70
     3
177
     2
291
     1
 71
     2
176
     1
 72
     2
176
     1
 73
     1
176
     1
 90
        2
176
     1
 40
0.6
176
     1
 41
30.0
176
     1
 63
     7
176
     1
 74
     1
176
     1
 91
        0
176
     1
 64
     7
176
     1
 65
   257
176
     1
 75
     1
176
     1
175
     1
176
     1
 42
1.0
176
     1
 92
        0
176
     1
 66
   257
176
     1
 43
1.0
176
     1
 76
     1
176
     1
 77
     6
176
     1
 78
     2
176
     1
 67
     7
176
     1
 79
     5
176
     1
170
     0
176
     1
171
     0
176
     1
290
     0
176
     1
 93
       13
176
     1
 44
0.0
176
     1
173
     0
176
     1
1001
ACAD
1000
AcDbSavedByObjectVersion
1070
     0
  0
VISUALSTYLE
  5
80D
102
{ACAD_XDICTIONARY
360
A03
102
}
102
{ACAD_REACTORS
330
805
102
}
330
805
100
AcDbVisualStyle
  2

 70
     6
177
     2
291
     0
 71
     1
176
     1
 72
     2
176
     1
 73
     2
176
     1
 90
        0
176
     1
 40
0.6
176
     1
 41
30.0
176
     1
 63
     7
176
     1
 74
     2
176
     1
 91
        2
176
     1
 64
     7
176
     1
 65
   257
176
     1
 75
     2
176
     1
175
     1
176
     1
 42
40.0
176
     1
 92
        0
176
     1
 66
   257
176
     1
 43
1.0
176
     1
 76
     1
176
     1
 77
     6
176
     1
 78
     2
176
     1
 67
     7
176
     1
 79
     3
176
     1
170
     0
176
     1
171
     0
176
     1
290
     0
176
     1
 93
        1
176
     1
 44
0.0
176
     1
173
     0
176
     1
1001
ACAD
1000
AcDbSavedByObjectVersion
1070
     0
  0
VISUALSTYLE
  5
81B
102
{ACAD_XDICTIONARY
360
A1F
102
}
102
{ACAD_REACTORS
330
805
102
}
330
805
100
AcDbVisualStyle
  2

 70
    20
177
     2
291
     1
 71
     2
176
     0
 72
     2
176
     0
 73
     0
176
     0
 90
        0
176
     0
 40
0.6
176
     0
 41
30.0
176
     0
 63
     7
176
     0
 74
     1
176
     0
 91
        4
176
     0
 64
     7
176
     0
 65
   257
176
     0
 75
     1
176
     0
175
     1
176
     0
 42
1.0
176
     0
 92
       10
176
     2
 66
     7
176
     0
 43
1.0
176
     0
 76
     1
176
     0
 77
     6
176
     0
 78
     2
176
     0
 67
     7
176
     0
 79
     5
176
     0
170
     0
176
     0
171
     0
176
     0
290
     0
176
     0
 93
        1
176
     0
 44
0.0
176
     0
173
     0
176
     0
1001
ACAD
1000
AcDbSavedByObjectVersion
1070
     0
  0
VISUALSTYLE
  5
813
102
{ACAD_XDICTIONARY
360
A0F
102
}
102
{ACAD_REACTORS
330
805
102
}
330
805
100
AcDbVisualStyle
  2

 70
    14
177
     2
291
     1
 71
     2
176
     1
 72
     2
176
     1
 73
     0
176
     1
 90
        0
176
     1
 40
0.6
176
     1
 41
30.0
176
     1
 63
     7
176
     1
 74
     1
176
     1
 91
        4
176
     1
 64
     7
176
     1
 65
   257
176
     1
 75
     7
176
     1
175
     7
176
     1
 42
1.0
176
     1
 92
        8
176
     1
 66
     7
176
     1
 43
1.0
176
     1
 76
     1
176
     1
 77
     6
176
     1
 78
     2
176
     1
 67
     7
176
     1
 79
     5
176
     1
170
     0
176
     1
171
     0
176
     1
290
     0
176
     1
 93
        1
176
     1
 44
0.0
176
     1
173
     0
176
     1
1001
ACAD
1000
AcDbSavedByObjectVersion
1070
     0
  0
VISUALSTYLE
  5
81C
102
{ACAD_XDICTIONARY
360
A21
102
}
102
{ACAD_REACTORS
330
805
102
}
330
805
100
AcDbVisualStyle
  2

 70
    21
177
     2
291
     1
 71
     2
176
     0
 72
     2
176
     0
 73
     0
176
     0
 90
        0
176
     0
 40
0.6
176
     0
 41
30.0
176
     0
 63
     7
176
     0
 74
     1
176
     0
 91
        4
176
     0
 64
     7
176
     0
 65
   257
176
     0
 75
     1
176
     0
175
     1
176
     0
 42
1.0
176
     0
 92
        9
176
     2
 66
     7
176
     0
 43
1.0
176
     0
 76
     1
176
     0
 77
     6
176
     0
 78
     2
176
     0
 67
     7
176
     0
 79
     5
176
     0
170
     0
176
     0
171
     0
176
     0
290
     0
176
     0
 93
        1
176
     0
 44
0.0
176
     0
173
     0
176
     0
1001
ACAD
1000
AcDbSavedByObjectVersion
1070
     0
  0
VISUALSTYLE
  5
80F
102
{ACAD_XDICTIONARY
360
A07
102
}
102
{ACAD_REACTORS
330
805
102
}
330
805
100
AcDbVisualStyle
  2

 70
     8
177
     2
291
     0
 71
     2
176
     1
 72
     3
176
     1
 73
     0
176
     1
 90
        2
176
     1
 40
0.6
176
     1
 41
30.0
176
     1
 63
     7
176
     1
 74
     0
176
     1
 91
        0
176
     1
 64
     7
176
     1
 65
   257
176
     1
 75
     1
176
     1
175
     1
176
     1
 42
1.0
176
     1
 92
        8
176
     1
 66
   257
176
     1
 43
1.0
176
     1
 76
     1
176
     1
 77
     6
176
     1
 78
     2
176
     1
 67
     7
176
     1
 79
     3
176
     1
170
     0
176
     1
171
     0
176
     1
290
     0
176
     1
 93
       13
176
     1
 44
0.0
176
     1
173
     0
176
     1
1001
ACAD
1000
AcDbSavedByObjectVersion
1070
     0
  0
VISUALSTYLE
  5
81A
102
{ACAD_XDICTIONARY
360
A1D
102
}
102
{ACAD_REACTORS
330
805
102
}
330
805
100
AcDbVisualStyle
  2

 70
    27
177
     2
291
     0
 71
     2
176
     1
 72
     2
176
     1
 73
     1
176
     1
 90
        2
176
     1
 40
0.6
176
     1
 41
30.0
176
     1
 63
     7
176
     1
 74
     0
176
     1
 91
        4
176
     1
 64
     7
176
     1
 65
   257
176
     1
 75
     1
176
     1
175
     1
176
     1
 42
1.0
176
     1
 92
        8
176
     1
 66
   257
176
     1
 43
1.0
176
     1
 76
     1
176
     1
 77
     6
176
     1
 78
     2
176
     1
 67
     8
176
     1
 79
     3
176
     1
170
     0
176
     1
171
     0
176
     1
290
     0
176
     1
 93
        5
176
     1
 44
0.0
176
     1
173
     0
176
     1
1001
ACAD
1000
AcDbSavedByObjectVersion
1070
     0
  0
VISUALSTYLE
  5
819
102
{ACAD_XDICTIONARY
360
A1B
102
}
102
{ACAD_REACTORS
330
805
102
}
330
805
100
AcDbVisualStyle
  2

 70
    26
177
     2
291
     0
 71
     2
176
     1
 72
     2
176
     1
 73
     1
176
     1
 90
        2
176
     1
 40
0.6
176
     1
 41
30.0
176
     1
 63
     7
176
     1
 74
     1
176
     1
 91
       10
176
     1
 64
     7
176
     1
 65
   257
176
     1
 75
     2
176
     1
175
     1
176
     1
 42
1.0
176
     1
 92
        8
176
     1
 66
   257
176
     1
 43
1.0
176
     1
 76
     1
176
     1
 77
     6
176
     1
 78
     2
176
     1
 67
     7
176
     1
 79
     3
176
     1
170
     0
176
     1
171
     0
176
     1
290
     0
176
     1
 93
        5
176
     1
 44
0.0
176
     1
173
     0
176
     1
1001
ACAD
1000
AcDbSavedByObjectVersion
1070
     0
  0
VISUALSTYLE
  5
816
102
{ACAD_XDICTIONARY
360
A15
102
}
102
{ACAD_REACTORS
330
805
102
}
330
805
100
AcDbVisualStyle
  2

 70
    23
177
     2
291
     0
 71
     2
176
     1
 72
     2
176
     1
 73
     3
176
     1
 90
        0
176
     1
 40
0.6
176
     1
 41
30.0
176
     1
 63
     7
176
     1
 74
     2
176
     1
 91
        2
176
     1
 64
     7
176
     1
 65
     7
176
     1
 75
     1
176
     1
175
     1
176
     1
 42
40.0
176
     1
 92
        8
176
     1
 66
     7
176
     1
 43
1.0
176
     1
 76
     1
176
     1
 77
     6
176
     1
 78
     2
176
     1
 67
     7
176
     1
 79
     3
176
     1
170
     0
176
     1
171
     0
176
     1
290
     0
176
     1
 93
        1
176
     1
 44
0.0
176
     1
173
     0
176
     1
1001
ACAD
1000
AcDbSavedByObjectVersion
1070
     0
  0
VISUALSTYLE
  5
817
102
{ACAD_XDICTIONARY
360
A17
102
}
102
{ACAD_REACTORS
330
805
102
}
330
805
100
AcDbVisualStyle
  2

 70
    24
177
     2
291
     0
 71
     1
176
     1
 72
     2
176
     1
 73
     2
176
     1
 90
        0
176
     1
 40
0.6
176
     1
 41
30.0
176
     1
 63
     7
176
     1
 74
     2
176
     1
 91
        2
176
     1
 64
     7
176
     1
 65
     7
176
     1
 75
     1
176
     1
175
     1
176
     1
 42
40.0
176
     1
 92
       11
176
     1
 66
     7
176
     1
 43
1.0
176
     1
 76
     1
176
     1
 77
     6
176
     1
 78
     2
176
     1
 67
     7
176
     1
 79
     6
176
     1
170
     0
176
     1
171
     0
176
     1
290
     0
176
     1
 93
        1
176
     1
 44
0.0
176
     1
173
     0
176
     1
1001
ACAD
1000
AcDbSavedByObjectVersion
1070
     0
  0
VISUALSTYLE
  5
812
102
{ACAD_XDICTIONARY
360
A0D
102
}
102
{ACAD_REACTORS
330
805
102
}
330
805
100
AcDbVisualStyle
  2

 70
    13
177
     2
291
     1
 71
     2
176
     1
 72
     2
176
     1
 73
     0
176
     1
 90
        0
176
     1
 40
0.6
176
     1
 41
30.0
176
     1
 63
     7
176
     1
 74
     1
176
     1
 91
        4
176
     1
 64
     7
176
     1
 65
   257
176
     1
 75
     1
176
     1
175
     1
176
     1
 42
1.0
176
     1
 92
       12
176
     1
 66
     7
176
     1
 43
1.0
176
     1
 76
     1
176
     1
 77
     6
176
     1
 78
     2
176
     1
 67
     7
176
     1
 79
     5
176
     1
170
     0
176
     1
171
     0
176
     1
290
     0
176
     1
 93
        1
176
     1
 44
0.0
176
     1
173
     0
176
     1
1001
ACAD
1000
AcDbSavedByObjectVersion
1070
     0
  0
VISUALSTYLE
  5
80C
102
{ACAD_XDICTIONARY
360
A01
102
}
102
{ACAD_REACTORS
330
805
102
}
330
805
100
AcDbVisualStyle
  2

 70
     5
177
     2
291
     0
 71
     0
176
     1
 72
     2
176
     1
 73
     0
176
     1
 90
        0
176
     1
 40
0.6
176
     1
 41
30.0
176
     1
 63
     7
176
     1
 74
     1
176
     1
 91
        4
176
     1
 64
     7
176
     1
 65
   257
176
     1
 75
     1
176
     1
175
     1
176
     1
 42
1.0
176
     1
 92
        0
176
     1
 66
   257
176
     1
 43
1.0
176
     1
 76
     1
176
     1
 77
     6
176
     1
 78
     2
176
     1
 67
     7
176
     1
 79
     3
176
     1
170
     0
176
     1
171
     0
176
     1
290
     0
176
     1
 93
        1
176
     1
 44
0.0
176
     1
173
     0
176
     1
1001
ACAD
1000
AcDbSavedByObjectVersion
1070
     0
  0
VISUALSTYLE
  5
818
102
{ACAD_XDICTIONARY
360
A19
102
}
102
{ACAD_REACTORS
330
805
102
}
330
805
100
AcDbVisualStyle
  2

 70
    25
177
     2
291
     0
 71
     2
176
     1
 72
     2
176
     1
 73
     1
176
     1
 90
        1
176
     1
 40
0.5
176
     1
 41
30.0
176
     1
 63
     7
176
     1
 74
     1
176
     1
 91
        0
176
     1
 64
     7
176
     1
 65
   257
176
     1
 75
     1
176
     1
175
     1
176
     1
 42
1.0
176
     1
 92
        8
176
     1
 66
     7
176
     1
 43
1.0
176
     1
 76
     1
176
     1
 77
     6
176
     1
 78
     2
176
     1
 67
     7
176
     1
 79
     3
176
     1
170
     0
176
     1
171
     0
176
     1
290
     0
176
     1
 93
       13
176
     1
 44
0.0
176
     1
173
     0
176
     1
1001
ACAD
1000
AcDbSavedByObjectVersion
1070
     0
  0
DICTIONARYVAR
  5
8FD
102
{ACAD_REACTORS
330
8FA
102
}
330
8FA
100
DictionaryVariables
280
     0
  1
1:1
  0
DICTIONARYVAR
  5
8FC
102
{ACAD_REACTORS
330
8FA
102
}
330
8FA
100
DictionaryVariables
280
     0
  1
STANDARD
  0
DICTIONARYVAR
  5
8FB
102
{ACAD_REACTORS
330
8FA
102
}
330
8FA
100
DictionaryVariables
280
     0
  1
STANDARD
  0
DICTIONARYVAR
  5
990
102
{ACAD_REACTORS
330
8FA
102
}
330
8FA
100
DictionaryVariables
280
     0
  1
Imperial24
  0
DICTIONARYVAR
  5
991
102
{ACAD_REACTORS
330
8FA
102
}
330
8FA
100
DictionaryVariables
280
     0
  1
Imperial24
  0
DICTIONARYVAR
  5
900
102
{ACAD_REACTORS
330
8FA
102
}
330
8FA
100
DictionaryVariables
280
     0
  1
1
  0
DICTIONARYVAR
  5
8FF
102
{ACAD_REACTORS
330
8FA
102
}
330
8FA
100
DictionaryVariables
280
     0
  1
0
  0
DICTIONARYVAR
  5
994
102
{ACAD_REACTORS
330
8FA
102
}
330
8FA
100
DictionaryVariables
280
     0
  1
1
  0
DICTIONARYVAR
  5
995
102
{ACAD_REACTORS
330
8FA
102
}
330
8FA
100
DictionaryVariables
280
     0
  1
15
  0
DICTIONARYVAR
  5
993
102
{ACAD_REACTORS
330
8FA
102
}
330
8FA
100
DictionaryVariables
280
     0
  1
0
  0
DICTIONARYVAR
  5
992
102
{ACAD_REACTORS
330
8FA
102
}
330
8FA
100
DictionaryVariables
280
     0
  1
0
  0
DICTIONARYVAR
  5
8FE
102
{ACAD_REACTORS
330
8FA
102
}
330
8FA
100
DictionaryVariables
280
     0
  1
127
  0
DICTIONARY
  5
9F4
102
{ACAD_REACTORS
330
9F2
102
}
330
9F2
100
AcDbDictionary
281
     1
  0
DICTIONARY
  5
9F3
102
{ACAD_REACTORS
330
9F2
102
}
330
9F2
100
AcDbDictionary
281
     1
  3
140503979561040
350
9ED
  3
140503979561056
350
9EE
  3
140503979561072
350
9EF
  3
140503979561088
350
9F0
  3
140503979561104
350
9F1
  0
DICTIONARY
  5
A29
330
950
100
AcDbDictionary
280
     1
281
     1
  3
ACAD_XREC_ROUNDTRIP
360
A2A
  0
DICTIONARY
  5
7F6
330
7F5
100
AcDbDictionary
280
     1
281
     1
  3
ACAD_XREC_ROUNDTRIP
360
907
  3
BUMPTILE
360
7F8
  3
DIFFUSETILE
360
7F7
  3
OPACITYTILE
360
7FB
  3
REFLECTIONTILE
360
7FA
  3
REFRACTIONTILE
360
7FC
  3
SPECULARTILE
360
7F9
  0
DICTIONARY
  5
7EE
330
7ED
100
AcDbDictionary
280
     1
281
     1
  3
ACAD_XREC_ROUNDTRIP
360
906
  3
BUMPTILE
360
7F0
  3
DIFFUSETILE
360
7EF
  3
OPACITYTILE
360
7F3
  3
REFLECTIONTILE
360
7F2
  3
REFRACTIONTILE
360
7F4
  3
SPECULARTILE
360
7F1
  0
DICTIONARY
  5
7FE
330
7FD
100
AcDbDictionary
280
     1
281
     1
  3
ACAD_XREC_ROUNDTRIP
360
908
  3
BUMPTILE
360
800
  3
DIFFUSETILE
360
7FF
  3
OPACITYTILE
360
803
  3
REFLECTIONTILE
360
802
  3
REFRACTIONTILE
360
804
  3
SPECULARTILE
360
801
  0
DICTIONARY
  5
A27
330
94E
100
AcDbDictionary
280
     1
281
     1
  3
ACAD_XREC_ROUNDTRIP
360
A28
  0
DICTIONARY
  5
902
330
840
100
AcDbDictionary
280
     1
281
     1
  3
ACAD_ROUNDTRIP_2008_TABLESTYLE_CELLSTYLEMAP
360
9E9
  0
DICTIONARY
  5
9FF
330
80B
100
AcDbDictionary
280
     1
281
     1
  3
ACAD_XREC_ROUNDTRIP
360
A00
  0
DICTIONARY
  5
A25
330
8DA
100
AcDbDictionary
280
     1
281
     1
  3
ACAD_XREC_ROUNDTRIP
360
A26
  0
DICTIONARY
  5
9FD
330
80A
100
AcDbDictionary
280
     1
281
     1
  3
ACAD_XREC_ROUNDTRIP
360
9FE
  0
DICTIONARY
  5
A0B
330
811
100
AcDbDictionary
280
     1
281
     1
  3
ACAD_XREC_ROUNDTRIP
360
A0C
  0
DICTIONARY
  5
A13
330
815
100
AcDbDictionary
280
     1
281
     1
  3
ACAD_XREC_ROUNDTRIP
360
A14
  0
DICTIONARY
  5
A05
330
80E
100
AcDbDictionary
280
     1
281
     1
  3
ACAD_XREC_ROUNDTRIP
360
A06
  0
DICTIONARY
  5
A09
330
810
100
AcDbDictionary
280
     1
281
     1
  3
ACAD_XREC_ROUNDTRIP
360
A0A
  0
DICTIONARY
  5
A23
330
81D
100
AcDbDictionary
280
     1
281
     1
  3
ACAD_XREC_ROUNDTRIP
360
A24
  0
DICTIONARY
  5
A11
330
814
100
AcDbDictionary
280
     1
281
     1
  3
ACAD_XREC_ROUNDTRIP
360
A12
  0
DICTIONARY
  5
9F5
330
806
100
AcDbDictionary
280
     1
281
     1
  3
ACAD_XREC_ROUNDTRIP
360
9F6
  0
DICTIONARY
  5
9F7
330
807
100
AcDbDictionary
280
     1
281
     1
  3
ACAD_XREC_ROUNDTRIP
360
9F8
  0
DICTIONARY
  5
9F9
330
808
100
AcDbDictionary
280
     1
281
     1
  3
ACAD_XREC_ROUNDTRIP
360
9FA
  0
DICTIONARY
  5
9FB
330
809
100
AcDbDictionary
280
     1
281
     1
  3
ACAD_XREC_ROUNDTRIP
360
9FC
  0
DICTIONARY
  5
A03
330
80D
100
AcDbDictionary
280
     1
281
     1
  3
ACAD_XREC_ROUNDTRIP
360
A04
  0
DICTIONARY
  5
A1F
330
81B
100
AcDbDictionary
280
     1
281
     1
  3
ACAD_XREC_ROUNDTRIP
360
A20
  0
DICTIONARY
  5
A0F
330
813
100
AcDbDictionary
280
     1
281
     1
  3
ACAD_XREC_ROUNDTRIP
360
A10
  0
DICTIONARY
  5
A21
330
81C
100
AcDbDictionary
280
     1
281
     1
  3
ACAD_XREC_ROUNDTRIP
360
A22
  0
DICTIONARY
  5
A07
330
80F
100
AcDbDictionary
280
     1
281
     1
  3
ACAD_XREC_ROUNDTRIP
360
A08
  0
DICTIONARY
  5
A1D
330
81A
100
AcDbDictionary
280
     1
281
     1
  3
ACAD_XREC_ROUNDTRIP
360
A1E
  0
DICTIONARY
  5
A1B
330
819
100
AcDbDictionary
280
     1
281
     1
  3
ACAD_XREC_ROUNDTRIP
360
A1C
  0
DICTIONARY
  5
A15
330
816
100
AcDbDictionary
280
     1
281
     1
  3
ACAD_XREC_ROUNDTRIP
360
A16
  0
DICTIONARY
  5
A17
330
817
100
AcDbDictionary
280
     1
281
     1
  3
ACAD_XREC_ROUNDTRIP
360
A18
  0
DICTIONARY
  5
A0D
330
812
100
AcDbDictionary
280
     1
281
     1
  3
ACAD_XREC_ROUNDTRIP
360
A0E
  0
DICTIONARY
  5
A01
330
80C
100
AcDbDictionary
280
     1
281
     1
  3
ACAD_XREC_ROUNDTRIP
360
A02
  0
DICTIONARY
  5
A19
330
818
100
AcDbDictionary
280
     1
281
     1
  3
ACAD_XREC_ROUNDTRIP
360
A1A
  0
XRECORD
  5
9ED
102
{ACAD_REACTORS
330
9F3
102
}
330
9F3
100
AcDbXrecord
280
     1
  1
AcDb_Thumbnail_Schema
102
{ATTRRECORD
341
9EE
  2
AcDbDs::TreatedAsObjectData
280
     1
291
     1
102
ATTRRECORD}
102
{ATTRRECORD
341
9EF
  2
AcDbDs::Legacy
280
     1
291
     1
102
ATTRRECORD}
  2
AcDbDs::ID
280
    10
 91
        8
102
{ATTRRECORD
341
9F0
  2
AcDs:Indexable
280
     1
291
     1
102
ATTRRECORD}
102
{ATTRRECORD
341
9F1
  2
AcDbDs::HandleAttribute
280
     7
282
     1
102
ATTRRECORD}
  2
Thumbnail_Data
280
    15
 91
        0
  0
XRECORD
  5
9EE
102
{ACAD_REACTORS
330
9F3
102
}
330
9F3
100
AcDbXrecord
280
     1
  1
AcDbDs::TreatedAsObjectDataSchema
  2
AcDbDs::TreatedAsObjectData
280
     1
 91
        0
  0
XRECORD
  5
9EF
102
{ACAD_REACTORS
330
9F3
102
}
330
9F3
100
AcDbXrecord
280
     1
  1
AcDbDs::LegacySchema
  2
AcDbDs::Legacy
280
     1
 91
        0
  0
XRECORD
  5
9F0
102
{ACAD_REACTORS
330
9F3
102
}
330
9F3
100
AcDbXrecord
280
     1
  1
AcDbDs::IndexedPropertySchema
  2
AcDs:Indexable
280
     1
 91
        0
  0
XRECORD
  5
9F1
102
{ACAD_REACTORS
330
9F3
102
}
330
9F3
100
AcDbXrecord
280
     1
  1
AcDbDs::HandleAttributeSchema
  2
AcDbDs::HandleAttribute
280
     7
 91
        1
284
     1
  0
XRECORD
  5
A2A
102
{ACAD_REACTORS
330
A29
102
}
330
A29
100
AcDbXrecord
280
     1
102
DISPLAYNAME
  1
Imperial24
102
FLAGS
 90
        0
  0
XRECORD
  5
907
102
{ACAD_REACTORS
330
7F6
102
}
330
7F6
100
AcDbXrecord
280
     1
102
MATERIAL
148
0.0
149
0.0
149
0.0
 93
        0
 94
      127
282
     0
 72
     0
 77
     0
171
     0
175
     0
179
     0
273
     0
  0
XRECORD
  5
7F8
102
{ACAD_REACTORS
330
7F6
102
}
330
7F6
100
AcDbXrecord
280
     1
270
     1
271
     1
  0
XRECORD
  5
7F7
102
{ACAD_REACTORS
330
7F6
102
}
330
7F6
100
AcDbXrecord
280
     1
270
     1
271
     1
  0
XRECORD
  5
7FB
102
{ACAD_REACTORS
330
7F6
102
}
330
7F6
100
AcDbXrecord
280
     1
270
     1
271
     1
  0
XRECORD
  5
7FA
102
{ACAD_REACTORS
330
7F6
102
}
330
7F6
100
AcDbXrecord
280
     1
270
     1
271
     1
  0
XRECORD
  5
7FC
102
{ACAD_REACTORS
330
7F6
102
}
330
7F6
100
AcDbXrecord
280
     1
270
     1
271
     1
  0
XRECORD
  5
7F9
102
{ACAD_REACTORS
330
7F6
102
}
330
7F6
100
AcDbXrecord
280
     1
270
     1
271
     1
  0
XRECORD
  5
906
102
{ACAD_REACTORS
330
7EE
102
}
330
7EE
100
AcDbXrecord
280
     1
102
MATERIAL
148
0.0
149
0.0
149
0.0
 93
        0
 94
      127
282
     0
 72
     0
 77
     0
171
     0
175
     0
179
     0
273
     0
  0
XRECORD
  5
7F0
102
{ACAD_REACTORS
330
7EE
102
}
330
7EE
100
AcDbXrecord
280
     1
270
     1
271
     1
  0
XRECORD
  5
7EF
102
{ACAD_REACTORS
330
7EE
102
}
330
7EE
100
AcDbXrecord
280
     1
270
     1
271
     1
  0
XRECORD
  5
7F3
102
{ACAD_REACTORS
330
7EE
102
}
330
7EE
100
AcDbXrecord
280
     1
270
     1
271
     1
  0
XRECORD
  5
7F2
102
{ACAD_REACTORS
330
7EE
102
}
330
7EE
100
AcDbXrecord
280
     1
270
     1
271
     1
  0
XRECORD
  5
7F4
102
{ACAD_REACTORS
330
7EE
102
}
330
7EE
100
AcDbXrecord
280
     1
270
     1
271
     1
  0
XRECORD
  5
7F1
102
{ACAD_REACTORS
330
7EE
102
}
330
7EE
100
AcDbXrecord
280
     1
270
     1
271
     1
  0
XRECORD
  5
908
102
{ACAD_REACTORS
330
7FE
102
}
330
7FE
100
AcDbXrecord
280
     1
102
MATERIAL
148
0.0
149
0.0
149
0.0
 93
        0
 94
      127
282
     0
 72
     0
 77
     0
171
     0
175
     0
179
     0
273
     0
  0
XRECORD
  5
800
102
{ACAD_REACTORS
330
7FE
102
}
330
7FE
100
AcDbXrecord
280
     1
270
     1
271
     1
  0
XRECORD
  5
7FF
102
{ACAD_REACTORS
330
7FE
102
}
330
7FE
100
AcDbXrecord
280
     1
270
     1
271
     1
  0
XRECORD
  5
803
102
{ACAD_REACTORS
330
7FE
102
}
330
7FE
100
AcDbXrecord
280
     1
270
     1
271
     1
  0
XRECORD
  5
802
102
{ACAD_REACTORS
330
7FE
102
}
330
7FE
100
AcDbXrecord
280
     1
270
     1
271
     1
  0
XRECORD
  5
804
102
{ACAD_REACTORS
330
7FE
102
}
330
7FE
100
AcDbXrecord
280
     1
270
     1
271
     1
  0
XRECORD
  5
801
102
{ACAD_REACTORS
330
7FE
102
}
330
7FE
100
AcDbXrecord
280
     1
270
     1
271
     1
  0
XRECORD
  5
A28
102
{ACAD_REACTORS
330
A27
102
}
330
A27
100
AcDbXrecord
280
     1
102
DISPLAYNAME
  1
Imperial24
102
FLAGS
 90
        0
  0
CELLSTYLEMAP
  5
9E9
102
{ACAD_REACTORS
330
902
102
}
330
902
100
AcDbCellStyleMap
 90
        3
300
CELLSTYLE
  1
TABLEFORMAT_BEGIN
 90
        5
170
     1
 91
        0
 92
    32768
 62
   257
 93
        1
300
CONTENTFORMAT
  1
CONTENTFORMAT_BEGIN
 90
        0
 91
        0
 92
      512
 93
        0
300

 40
0.0
140
1.0
 94
        5
 62
     0
340
831
144
0.25
309
CONTENTFORMAT_END
171
     1
301
MARGIN
  1
CELLMARGIN_BEGIN
 40
0.06
 40
0.06
 40
0.06
 40
0.06
 40
0.18
 40
0.18
309
CELLMARGIN_END
 94
        6
 95
        1
302
GRIDFORMAT
  1
GRIDFORMAT_BEGIN
 90
        0
 91
        1
 62
     0
 92
       -2
340
0
 93
        0
 40
0.045
309
GRIDFORMAT_END
 95
        2
302
GRIDFORMAT
  1
GRIDFORMAT_BEGIN
 90
        0
 91
        1
 62
     0
 92
       -2
340
0
 93
        0
 40
0.045
309
GRIDFORMAT_END
 95
        4
302
GRIDFORMAT
  1
GRIDFORMAT_BEGIN
 90
        0
 91
        1
 62
     0
 92
       -2
340
0
 93
        0
 40
0.045
309
GRIDFORMAT_END
 95
        8
302
GRIDFORMAT
  1
GRIDFORMAT_BEGIN
 90
        0
 91
        1
 62
     0
 92
       -2
340
0
 93
        0
 40
0.045
309
GRIDFORMAT_END
 95
       16
302
GRIDFORMAT
  1
GRIDFORMAT_BEGIN
 90
        0
 91
        1
 62
     0
 92
       -2
340
0
 93
        0
 40
0.045
309
GRIDFORMAT_END
 95
       32
302
GRIDFORMAT
  1
GRIDFORMAT_BEGIN
 90
        0
 91
        1
 62
     0
 92
       -2
340
0
 93
        0
 40
0.045
309
GRIDFORMAT_END
309
TABLEFORMAT_END
  1
CELLSTYLE_BEGIN
 90
        1
 91
        1
300
_TITLE
309
CELLSTYLE_END
300
CELLSTYLE
  1
TABLEFORMAT_BEGIN
 90
        5
170
     1
 91
        0
 92
        0
 62
   257
 93
        1
300
CONTENTFORMAT
  1
CONTENTFORMAT_BEGIN
 90
        0
 91
        0
 92
      512
 93
        0
300

 40
0.0
140
1.0
 94
        5
 62
     0
340
831
144
0.18
309
CONTENTFORMAT_END
171
     1
301
MARGIN
  1
CELLMARGIN_BEGIN
 40
0.06
 40
0.06
 40
0.06
 40
0.06
 40
0.18
 40
0.18
309
CELLMARGIN_END
 94
        6
 95
        1
302
GRIDFORMAT
  1
GRIDFORMAT_BEGIN
 90
        0
 91
        1
 62
     0
 92
       -2
340
0
 93
        0
 40
0.045
309
GRIDFORMAT_END
 95
        2
302
GRIDFORMAT
  1
GRIDFORMAT_BEGIN
 90
        0
 91
        1
 62
     0
 92
       -2
340
0
 93
        0
 40
0.045
309
GRIDFORMAT_END
 95
        4
302
GRIDFORMAT
  1
GRIDFORMAT_BEGIN
 90
        0
 91
        1
 62
     0
 92
       -2
340
0
 93
        0
 40
0.045
309
GRIDFORMAT_END
 95
        8
302
GRIDFORMAT
  1
GRIDFORMAT_BEGIN
 90
        0
 91
        1
 62
     0
 92
       -2
340
0
 93
        0
 40
0.045
309
GRIDFORMAT_END
 95
       16
302
GRIDFORMAT
  1
GRIDFORMAT_BEGIN
 90
        0
 91
        1
 62
     0
 92
       -2
340
0
 93
        0
 40
0.045
309
GRIDFORMAT_END
 95
       32
302
GRIDFORMAT
  1
GRIDFORMAT_BEGIN
 90
        0
 91
        1
 62
     0
 92
       -2
340
0
 93
        0
 40
0.045
309
GRIDFORMAT_END
309
TABLEFORMAT_END
  1
CELLSTYLE_BEGIN
 90
        2
 91
        1
300
_HEADER
309
CELLSTYLE_END
300
CELLSTYLE
  1
TABLEFORMAT_BEGIN
 90
        5
170
     1
 91
        0
 92
        0
 62
   257
 93
        1
300
CONTENTFORMAT
  1
CONTENTFORMAT_BEGIN
 90
        0
 91
        0
 92
      512
 93
        0
300

 40
0.0
140
1.0
 94
        2
 62
     0
340
831
144
0.18
309
CONTENTFORMAT_END
171
     1
301
MARGIN
  1
CELLMARGIN_BEGIN
 40
0.06
 40
0.06
 40
0.06
 40
0.06
 40
0.18
 40
0.18
309
CELLMARGIN_END
 94
        6
 95
        1
302
GRIDFORMAT
  1
GRIDFORMAT_BEGIN
 90
        0
 91
        1
 62
     0
 92
       -2
340
0
 93
        0
 40
0.045
309
GRIDFORMAT_END
 95
        2
302
GRIDFORMAT
  1
GRIDFORMAT_BEGIN
 90
        0
 91
        1
 62
     0
 92
       -2
340
0
 93
        0
 40
0.045
309
GRIDFORMAT_END
 95
        4
302
GRIDFORMAT
  1
GRIDFORMAT_BEGIN
 90
        0
 91
        1
 62
     0
 92
       -2
340
0
 93
        0
 40
0.045
309
GRIDFORMAT_END
 95
        8
302
GRIDFORMAT
  1
GRIDFORMAT_BEGIN
 90
        0
 91
        1
 62
     0
 92
       -2
340
0
 93
        0
 40
0.045
309
GRIDFORMAT_END
 95
       16
302
GRIDFORMAT
  1
GRIDFORMAT_BEGIN
 90
        0
 91
        1
 62
     0
 92
       -2
340
0
 93
        0
 40
0.045
309
GRIDFORMAT_END
 95
       32
302
GRIDFORMAT
  1
GRIDFORMAT_BEGIN
 90
        0
 91
        1
 62
     0
 92
       -2
340
0
 93
        0
 40
0.045
309
GRIDFORMAT_END
309
TABLEFORMAT_END
  1
CELLSTYLE_BEGIN
 90
        3
 91
        2
300
_DATA
309
CELLSTYLE_END
  0
XRECORD
  5
A00
102
{ACAD_REACTORS
330
9FF
102
}
330
9FF
100
AcDbXrecord
280
     1
102
RTVSPost2010Prop28
280
     1
102
RTVSPost2010PropOp28
 70
     1
102
RTVSPost2010Prop29
280
     1
102
RTVSPost2010PropOp29
 70
     1
102
RTVSPost2010Prop30
280
     0
102
RTVSPost2010PropOp30
 70
     1
102
RTVSPost2010Prop31
280
     0
102
RTVSPost2010PropOp31
 70
     1
102
RTVSPost2010Prop32
280
     0
102
RTVSPost2010PropOp32
 70
     1
102
RTVSPost2010Prop33
280
     0
102
RTVSPost2010PropOp33
 70
     1
102
RTVSPost2010Prop34
280
     0
102
RTVSPost2010PropOp34
 70
     1
102
RTVSPost2010Prop35
280
     0
102
RTVSPost2010PropOp35
 70
     1
102
RTVSPost2010Prop36
280
     0
102
RTVSPost2010PropOp36
 70
     1
102
RTVSPost2010Prop37
 90
       50
102
RTVSPost2010PropOp37
 70
     1
102
RTVSPost2010Prop38
140
0.0
102
RTVSPost2010PropOp38
 70
     1
102
RTVSPost2010Prop39
140
1.0
102
RTVSPost2010PropOp39
 70
     1
102
RTVSPost2010Prop40
 90
        0
102
RTVSPost2010PropOp40
 70
     1
102
RTVSPost2010Prop41ColorIndex
 90
       18
102
RTVSPost2010Prop41ColorRGB
 90
        0
102
RTVSPost2010PropOp41
 70
     1
102
RTVSPost2010Prop42
 90
       50
102
RTVSPost2010PropOp42
 70
     1
102
RTVSPost2010Prop43
 90
        3
102
RTVSPost2010PropOp43
 70
     1
102
RTVSPost2010Prop44ColorIndex
 90
        5
102
RTVSPost2010Prop44ColorRGB
 90
      255
102
RTVSPost2010PropOp44
 70
     1
102
RTVSPost2010Prop45
280
     0
102
RTVSPost2010PropOp45
 70
     1
102
RTVSPost2010Prop46
 90
       50
102
RTVSPost2010PropOp46
 70
     1
102
RTVSPost2010Prop47
 90
       50
102
RTVSPost2010PropOp47
 70
     1
102
RTVSPost2010Prop48
 90
       50
102
RTVSPost2010PropOp48
 70
     1
102
RTVSPost2010Prop49
280
     0
102
RTVSPost2010PropOp49
 70
     1
102
RTVSPost2010Prop50
 90
       50
102
RTVSPost2010PropOp50
 70
     1
102
RTVSPost2010Prop51ColorIndex
 90
      256
102
RTVSPost2010Prop51ColorRGB
 90
-16777216
102
RTVSPost2010PropOp51
 70
     0
102
RTVSPost2010Prop52
140
1.0
102
RTVSPost2010PropOp52
 70
     0
102
RTVSPost2010Prop53
 90
        2
102
RTVSPost2010PropOp53
 70
     1
102
RTVSPost2010Prop54
  1
strokes_ogs.tif
102
RTVSPost2010PropOp54
 70
     1
102
RTVSPost2010Prop55
280
     0
102
RTVSPost2010PropOp55
 70
     1
102
RTVSPost2010Prop56
140
1.0
102
RTVSPost2010PropOp56
 70
     1
102
RTVSPost2010Prop57
140
1.0
102
RTVSPost2010PropOp57
 70
     1
  0
XRECORD
  5
A26
102
{ACAD_REACTORS
330
A25
102
}
330
A25
100
AcDbXrecord
280
     1
102
RTVSPost2010Prop28
280
     0
102
RTVSPost2010PropOp28
 70
     1
102
RTVSPost2010Prop29
280
     1
102
RTVSPost2010PropOp29
 70
     1
102
RTVSPost2010Prop30
280
     1
102
RTVSPost2010PropOp30
 70
     1
102
RTVSPost2010Prop31
280
     0
102
RTVSPost2010PropOp31
 70
     1
102
RTVSPost2010Prop32
280
     0
102
RTVSPost2010PropOp32
 70
     1
102
RTVSPost2010Prop33
280
     0
102
RTVSPost2010PropOp33
 70
     1
102
RTVSPost2010Prop34
280
     0
102
RTVSPost2010PropOp34
 70
     1
102
RTVSPost2010Prop35
280
     0
102
RTVSPost2010PropOp35
 70
     1
102
RTVSPost2010Prop36
280
     0
102
RTVSPost2010PropOp36
 70
     1
102
RTVSPost2010Prop37
 90
       50
102
RTVSPost2010PropOp37
 70
     1
102
RTVSPost2010Prop38
140
0.0
102
RTVSPost2010PropOp38
 70
     1
102
RTVSPost2010Prop39
140
1.0
102
RTVSPost2010PropOp39
 70
     1
102
RTVSPost2010Prop40
 90
        0
102
RTVSPost2010PropOp40
 70
     1
102
RTVSPost2010Prop41ColorIndex
 90
       18
102
RTVSPost2010Prop41ColorRGB
 90
        0
102
RTVSPost2010PropOp41
 70
     1
102
RTVSPost2010Prop42
 90
       50
102
RTVSPost2010PropOp42
 70
     1
102
RTVSPost2010Prop43
 90
        3
102
RTVSPost2010PropOp43
 70
     1
102
RTVSPost2010Prop44ColorIndex
 90
        5
102
RTVSPost2010Prop44ColorRGB
 90
      255
102
RTVSPost2010PropOp44
 70
     1
102
RTVSPost2010Prop45
280
     0
102
RTVSPost2010PropOp45
 70
     1
102
RTVSPost2010Prop46
 90
       50
102
RTVSPost2010PropOp46
 70
     1
102
RTVSPost2010Prop47
 90
       50
102
RTVSPost2010PropOp47
 70
     1
102
RTVSPost2010Prop48
 90
       50
102
RTVSPost2010PropOp48
 70
     1
102
RTVSPost2010Prop49
280
     0
102
RTVSPost2010PropOp49
 70
     1
102
RTVSPost2010Prop50
 90
       50
102
RTVSPost2010PropOp50
 70
     1
102
RTVSPost2010Prop51ColorIndex
 90
      256
102
RTVSPost2010Prop51ColorRGB
 90
-16777216
102
RTVSPost2010PropOp51
 70
     0
102
RTVSPost2010Prop52
140
1.0
102
RTVSPost2010PropOp52
 70
     0
102
RTVSPost2010Prop53
 90
        2
102
RTVSPost2010PropOp53
 70
     1
102
RTVSPost2010Prop54
  1
strokes_ogs.tif
102
RTVSPost2010PropOp54
 70
     1
102
RTVSPost2010Prop55
280
     0
102
RTVSPost2010PropOp55
 70
     1
102
RTVSPost2010Prop56
140
1.0
102
RTVSPost2010PropOp56
 70
     1
102
RTVSPost2010Prop57
140
1.0
102
RTVSPost2010PropOp57
 70
     1
  0
XRECORD
  5
9FE
102
{ACAD_REACTORS
330
9FD
102
}
330
9FD
100
AcDbXrecord
280
     1
102
RTVSPost2010Prop28
280
     0
102
RTVSPost2010PropOp28
 70
     1
102
RTVSPost2010Prop29
280
     1
102
RTVSPost2010PropOp29
 70
     1
102
RTVSPost2010Prop30
280
     1
102
RTVSPost2010PropOp30
 70
     1
102
RTVSPost2010Prop31
280
     0
102
RTVSPost2010PropOp31
 70
     1
102
RTVSPost2010Prop32
280
     0
102
RTVSPost2010PropOp32
 70
     1
102
RTVSPost2010Prop33
280
     0
102
RTVSPost2010PropOp33
 70
     1
102
RTVSPost2010Prop34
280
     0
102
RTVSPost2010PropOp34
 70
     1
102
RTVSPost2010Prop35
280
     0
102
RTVSPost2010PropOp35
 70
     1
102
RTVSPost2010Prop36
280
     0
102
RTVSPost2010PropOp36
 70
     1
102
RTVSPost2010Prop37
 90
       50
102
RTVSPost2010PropOp37
 70
     1
102
RTVSPost2010Prop38
140
0.0
102
RTVSPost2010PropOp38
 70
     1
102
RTVSPost2010Prop39
140
1.0
102
RTVSPost2010PropOp39
 70
     1
102
RTVSPost2010Prop40
 90
        0
102
RTVSPost2010PropOp40
 70
     1
102
RTVSPost2010Prop41ColorIndex
 90
       18
102
RTVSPost2010Prop41ColorRGB
 90
        0
102
RTVSPost2010PropOp41
 70
     1
102
RTVSPost2010Prop42
 90
       50
102
RTVSPost2010PropOp42
 70
     1
102
RTVSPost2010Prop43
 90
        3
102
RTVSPost2010PropOp43
 70
     1
102
RTVSPost2010Prop44ColorIndex
 90
        5
102
RTVSPost2010Prop44ColorRGB
 90
      255
102
RTVSPost2010PropOp44
 70
     1
102
RTVSPost2010Prop45
280
     0
102
RTVSPost2010PropOp45
 70
     1
102
RTVSPost2010Prop46
 90
       50
102
RTVSPost2010PropOp46
 70
     1
102
RTVSPost2010Prop47
 90
       50
102
RTVSPost2010PropOp47
 70
     1
102
RTVSPost2010Prop48
 90
       50
102
RTVSPost2010PropOp48
 70
     1
102
RTVSPost2010Prop49
280
     0
102
RTVSPost2010PropOp49
 70
     1
102
RTVSPost2010Prop50
 90
       50
102
RTVSPost2010PropOp50
 70
     1
102
RTVSPost2010Prop51ColorIndex
 90
      256
102
RTVSPost2010Prop51ColorRGB
 90
-16777216
102
RTVSPost2010PropOp51
 70
     0
102
RTVSPost2010Prop52
140
1.0
102
RTVSPost2010PropOp52
 70
     0
102
RTVSPost2010Prop53
 90
        2
102
RTVSPost2010PropOp53
 70
     1
102
RTVSPost2010Prop54
  1
strokes_ogs.tif
102
RTVSPost2010PropOp54
 70
     1
102
RTVSPost2010Prop55
280
     0
102
RTVSPost2010PropOp55
 70
     1
102
RTVSPost2010Prop56
140
1.0
102
RTVSPost2010PropOp56
 70
     1
102
RTVSPost2010Prop57
140
1.0
102
RTVSPost2010PropOp57
 70
     1
  0
XRECORD
  5
A0C
102
{ACAD_REACTORS
330
A0B
102
}
330
A0B
100
AcDbXrecord
280
     1
102
RTVSPost2010Prop28
280
     0
102
RTVSPost2010PropOp28
 70
     1
102
RTVSPost2010Prop29
280
     1
102
RTVSPost2010PropOp29
 70
     1
102
RTVSPost2010Prop30
280
     1
102
RTVSPost2010PropOp30
 70
     1
102
RTVSPost2010Prop31
280
     0
102
RTVSPost2010PropOp31
 70
     1
102
RTVSPost2010Prop32
280
     0
102
RTVSPost2010PropOp32
 70
     1
102
RTVSPost2010Prop33
280
     0
102
RTVSPost2010PropOp33
 70
     1
102
RTVSPost2010Prop34
280
     0
102
RTVSPost2010PropOp34
 70
     1
102
RTVSPost2010Prop35
280
     0
102
RTVSPost2010PropOp35
 70
     1
102
RTVSPost2010Prop36
280
     0
102
RTVSPost2010PropOp36
 70
     1
102
RTVSPost2010Prop37
 90
       50
102
RTVSPost2010PropOp37
 70
     1
102
RTVSPost2010Prop38
140
0.0
102
RTVSPost2010PropOp38
 70
     1
102
RTVSPost2010Prop39
140
1.0
102
RTVSPost2010PropOp39
 70
     1
102
RTVSPost2010Prop40
 90
        0
102
RTVSPost2010PropOp40
 70
     1
102
RTVSPost2010Prop41ColorIndex
 90
       18
102
RTVSPost2010Prop41ColorRGB
 90
        0
102
RTVSPost2010PropOp41
 70
     1
102
RTVSPost2010Prop42
 90
       50
102
RTVSPost2010PropOp42
 70
     1
102
RTVSPost2010Prop43
 90
        3
102
RTVSPost2010PropOp43
 70
     1
102
RTVSPost2010Prop44ColorIndex
 90
        5
102
RTVSPost2010Prop44ColorRGB
 90
      255
102
RTVSPost2010PropOp44
 70
     1
102
RTVSPost2010Prop45
280
     0
102
RTVSPost2010PropOp45
 70
     1
102
RTVSPost2010Prop46
 90
       50
102
RTVSPost2010PropOp46
 70
     1
102
RTVSPost2010Prop47
 90
       50
102
RTVSPost2010PropOp47
 70
     1
102
RTVSPost2010Prop48
 90
       50
102
RTVSPost2010PropOp48
 70
     1
102
RTVSPost2010Prop49
280
     0
102
RTVSPost2010PropOp49
 70
     1
102
RTVSPost2010Prop50
 90
       50
102
RTVSPost2010PropOp50
 70
     1
102
RTVSPost2010Prop51ColorIndex
 90
      256
102
RTVSPost2010Prop51ColorRGB
 90
-16777216
102
RTVSPost2010PropOp51
 70
     0
102
RTVSPost2010Prop52
140
1.0
102
RTVSPost2010PropOp52
 70
     0
102
RTVSPost2010Prop53
 90
        2
102
RTVSPost2010PropOp53
 70
     1
102
RTVSPost2010Prop54
  1
strokes_ogs.tif
102
RTVSPost2010PropOp54
 70
     1
102
RTVSPost2010Prop55
280
     0
102
RTVSPost2010PropOp55
 70
     1
102
RTVSPost2010Prop56
140
1.0
102
RTVSPost2010PropOp56
 70
     1
102
RTVSPost2010Prop57
140
1.0
102
RTVSPost2010PropOp57
 70
     1
  0
XRECORD
  5
A14
102
{ACAD_REACTORS
330
A13
102
}
330
A13
100
AcDbXrecord
280
     1
102
RTVSPost2010Prop28
280
     0
102
RTVSPost2010PropOp28
 70
     1
102
RTVSPost2010Prop29
280
     1
102
RTVSPost2010PropOp29
 70
     1
102
RTVSPost2010Prop30
280
     1
102
RTVSPost2010PropOp30
 70
     1
102
RTVSPost2010Prop31
280
     0
102
RTVSPost2010PropOp31
 70
     1
102
RTVSPost2010Prop32
280
     0
102
RTVSPost2010PropOp32
 70
     1
102
RTVSPost2010Prop33
280
     0
102
RTVSPost2010PropOp33
 70
     1
102
RTVSPost2010Prop34
280
     0
102
RTVSPost2010PropOp34
 70
     1
102
RTVSPost2010Prop35
280
     0
102
RTVSPost2010PropOp35
 70
     1
102
RTVSPost2010Prop36
280
     0
102
RTVSPost2010PropOp36
 70
     1
102
RTVSPost2010Prop37
 90
       50
102
RTVSPost2010PropOp37
 70
     1
102
RTVSPost2010Prop38
140
0.0
102
RTVSPost2010PropOp38
 70
     1
102
RTVSPost2010Prop39
140
1.0
102
RTVSPost2010PropOp39
 70
     1
102
RTVSPost2010Prop40
 90
        0
102
RTVSPost2010PropOp40
 70
     1
102
RTVSPost2010Prop41ColorIndex
 90
       18
102
RTVSPost2010Prop41ColorRGB
 90
        0
102
RTVSPost2010PropOp41
 70
     1
102
RTVSPost2010Prop42
 90
       50
102
RTVSPost2010PropOp42
 70
     1
102
RTVSPost2010Prop43
 90
        3
102
RTVSPost2010PropOp43
 70
     1
102
RTVSPost2010Prop44ColorIndex
 90
        5
102
RTVSPost2010Prop44ColorRGB
 90
      255
102
RTVSPost2010PropOp44
 70
     1
102
RTVSPost2010Prop45
280
     0
102
RTVSPost2010PropOp45
 70
     1
102
RTVSPost2010Prop46
 90
       50
102
RTVSPost2010PropOp46
 70
     1
102
RTVSPost2010Prop47
 90
       50
102
RTVSPost2010PropOp47
 70
     1
102
RTVSPost2010Prop48
 90
       50
102
RTVSPost2010PropOp48
 70
     1
102
RTVSPost2010Prop49
280
     0
102
RTVSPost2010PropOp49
 70
     1
102
RTVSPost2010Prop50
 90
       50
102
RTVSPost2010PropOp50
 70
     1
102
RTVSPost2010Prop51ColorIndex
 90
      256
102
RTVSPost2010Prop51ColorRGB
 90
-16777216
102
RTVSPost2010PropOp51
 70
     0
102
RTVSPost2010Prop52
140
1.0
102
RTVSPost2010PropOp52
 70
     0
102
RTVSPost2010Prop53
 90
        2
102
RTVSPost2010PropOp53
 70
     1
102
RTVSPost2010Prop54
  1
strokes_ogs.tif
102
RTVSPost2010PropOp54
 70
     1
102
RTVSPost2010Prop55
280
     0
102
RTVSPost2010PropOp55
 70
     1
102
RTVSPost2010Prop56
140
1.0
102
RTVSPost2010PropOp56
 70
     1
102
RTVSPost2010Prop57
140
1.0
102
RTVSPost2010PropOp57
 70
     1
  0
XRECORD
  5
A06
102
{ACAD_REACTORS
330
A05
102
}
330
A05
100
AcDbXrecord
280
     1
102
RTVSPost2010Prop28
280
     0
102
RTVSPost2010PropOp28
 70
     1
102
RTVSPost2010Prop29
280
     1
102
RTVSPost2010PropOp29
 70
     1
102
RTVSPost2010Prop30
280
     1
102
RTVSPost2010PropOp30
 70
     1
102
RTVSPost2010Prop31
280
     0
102
RTVSPost2010PropOp31
 70
     1
102
RTVSPost2010Prop32
280
     0
102
RTVSPost2010PropOp32
 70
     1
102
RTVSPost2010Prop33
280
     0
102
RTVSPost2010PropOp33
 70
     1
102
RTVSPost2010Prop34
280
     0
102
RTVSPost2010PropOp34
 70
     1
102
RTVSPost2010Prop35
280
     0
102
RTVSPost2010PropOp35
 70
     1
102
RTVSPost2010Prop36
280
     0
102
RTVSPost2010PropOp36
 70
     1
102
RTVSPost2010Prop37
 90
       50
102
RTVSPost2010PropOp37
 70
     1
102
RTVSPost2010Prop38
140
0.0
102
RTVSPost2010PropOp38
 70
     1
102
RTVSPost2010Prop39
140
1.0
102
RTVSPost2010PropOp39
 70
     1
102
RTVSPost2010Prop40
 90
        0
102
RTVSPost2010PropOp40
 70
     1
102
RTVSPost2010Prop41ColorIndex
 90
       18
102
RTVSPost2010Prop41ColorRGB
 90
        0
102
RTVSPost2010PropOp41
 70
     1
102
RTVSPost2010Prop42
 90
       50
102
RTVSPost2010PropOp42
 70
     1
102
RTVSPost2010Prop43
 90
        3
102
RTVSPost2010PropOp43
 70
     1
102
RTVSPost2010Prop44ColorIndex
 90
        5
102
RTVSPost2010Prop44ColorRGB
 90
      255
102
RTVSPost2010PropOp44
 70
     1
102
RTVSPost2010Prop45
280
     0
102
RTVSPost2010PropOp45
 70
     1
102
RTVSPost2010Prop46
 90
       50
102
RTVSPost2010PropOp46
 70
     1
102
RTVSPost2010Prop47
 90
       50
102
RTVSPost2010PropOp47
 70
     1
102
RTVSPost2010Prop48
 90
       50
102
RTVSPost2010PropOp48
 70
     1
102
RTVSPost2010Prop49
280
     0
102
RTVSPost2010PropOp49
 70
     1
102
RTVSPost2010Prop50
 90
       50
102
RTVSPost2010PropOp50
 70
     1
102
RTVSPost2010Prop51ColorIndex
 90
      256
102
RTVSPost2010Prop51ColorRGB
 90
-16777216
102
RTVSPost2010PropOp51
 70
     0
102
RTVSPost2010Prop52
140
1.0
102
RTVSPost2010PropOp52
 70
     0
102
RTVSPost2010Prop53
 90
        2
102
RTVSPost2010PropOp53
 70
     1
102
RTVSPost2010Prop54
  1
strokes_ogs.tif
102
RTVSPost2010PropOp54
 70
     1
102
RTVSPost2010Prop55
280
     0
102
RTVSPost2010PropOp55
 70
     1
102
RTVSPost2010Prop56
140
1.0
102
RTVSPost2010PropOp56
 70
     1
102
RTVSPost2010Prop57
140
1.0
102
RTVSPost2010PropOp57
 70
     1
  0
XRECORD
  5
A0A
102
{ACAD_REACTORS
330
A09
102
}
330
A09
100
AcDbXrecord
280
     1
102
RTVSPost2010Prop28
280
     0
102
RTVSPost2010PropOp28
 70
     1
102
RTVSPost2010Prop29
280
     1
102
RTVSPost2010PropOp29
 70
     1
102
RTVSPost2010Prop30
280
     1
102
RTVSPost2010PropOp30
 70
     1
102
RTVSPost2010Prop31
280
     0
102
RTVSPost2010PropOp31
 70
     1
102
RTVSPost2010Prop32
280
     0
102
RTVSPost2010PropOp32
 70
     1
102
RTVSPost2010Prop33
280
     0
102
RTVSPost2010PropOp33
 70
     1
102
RTVSPost2010Prop34
280
     0
102
RTVSPost2010PropOp34
 70
     1
102
RTVSPost2010Prop35
280
     0
102
RTVSPost2010PropOp35
 70
     1
102
RTVSPost2010Prop36
280
     0
102
RTVSPost2010PropOp36
 70
     1
102
RTVSPost2010Prop37
 90
       50
102
RTVSPost2010PropOp37
 70
     1
102
RTVSPost2010Prop38
140
0.0
102
RTVSPost2010PropOp38
 70
     1
102
RTVSPost2010Prop39
140
1.0
102
RTVSPost2010PropOp39
 70
     1
102
RTVSPost2010Prop40
 90
        0
102
RTVSPost2010PropOp40
 70
     1
102
RTVSPost2010Prop41ColorIndex
 90
       18
102
RTVSPost2010Prop41ColorRGB
 90
        0
102
RTVSPost2010PropOp41
 70
     1
102
RTVSPost2010Prop42
 90
       50
102
RTVSPost2010PropOp42
 70
     1
102
RTVSPost2010Prop43
 90
        3
102
RTVSPost2010PropOp43
 70
     1
102
RTVSPost2010Prop44ColorIndex
 90
        5
102
RTVSPost2010Prop44ColorRGB
 90
      255
102
RTVSPost2010PropOp44
 70
     1
102
RTVSPost2010Prop45
280
     0
102
RTVSPost2010PropOp45
 70
     1
102
RTVSPost2010Prop46
 90
       50
102
RTVSPost2010PropOp46
 70
     1
102
RTVSPost2010Prop47
 90
       50
102
RTVSPost2010PropOp47
 70
     1
102
RTVSPost2010Prop48
 90
       50
102
RTVSPost2010PropOp48
 70
     1
102
RTVSPost2010Prop49
280
     0
102
RTVSPost2010PropOp49
 70
     1
102
RTVSPost2010Prop50
 90
       50
102
RTVSPost2010PropOp50
 70
     1
102
RTVSPost2010Prop51ColorIndex
 90
      256
102
RTVSPost2010Prop51ColorRGB
 90
-16777216
102
RTVSPost2010PropOp51
 70
     0
102
RTVSPost2010Prop52
140
1.0
102
RTVSPost2010PropOp52
 70
     0
102
RTVSPost2010Prop53
 90
        2
102
RTVSPost2010PropOp53
 70
     1
102
RTVSPost2010Prop54
  1
strokes_ogs.tif
102
RTVSPost2010PropOp54
 70
     1
102
RTVSPost2010Prop55
280
     0
102
RTVSPost2010PropOp55
 70
     1
102
RTVSPost2010Prop56
140
1.0
102
RTVSPost2010PropOp56
 70
     1
102
RTVSPost2010Prop57
140
1.0
102
RTVSPost2010PropOp57
 70
     1
  0
XRECORD
  5
A24
102
{ACAD_REACTORS
330
A23
102
}
330
A23
100
AcDbXrecord
280
     1
102
RTVSPost2010Prop28
280
     0
102
RTVSPost2010PropOp28
 70
     0
102
RTVSPost2010Prop29
280
     1
102
RTVSPost2010PropOp29
 70
     0
102
RTVSPost2010Prop30
280
     1
102
RTVSPost2010PropOp30
 70
     0
102
RTVSPost2010Prop31
280
     0
102
RTVSPost2010PropOp31
 70
     0
102
RTVSPost2010Prop32
280
     0
102
RTVSPost2010PropOp32
 70
     0
102
RTVSPost2010Prop33
280
     0
102
RTVSPost2010PropOp33
 70
     1
102
RTVSPost2010Prop34
280
     0
102
RTVSPost2010PropOp34
 70
     1
102
RTVSPost2010Prop35
280
     0
102
RTVSPost2010PropOp35
 70
     1
102
RTVSPost2010Prop36
280
     0
102
RTVSPost2010PropOp36
 70
     1
102
RTVSPost2010Prop37
 90
       50
102
RTVSPost2010PropOp37
 70
     1
102
RTVSPost2010Prop38
140
0.0
102
RTVSPost2010PropOp38
 70
     1
102
RTVSPost2010Prop39
140
1.0
102
RTVSPost2010PropOp39
 70
     1
102
RTVSPost2010Prop40
 90
        0
102
RTVSPost2010PropOp40
 70
     1
102
RTVSPost2010Prop41ColorIndex
 90
       18
102
RTVSPost2010Prop41ColorRGB
 90
        0
102
RTVSPost2010PropOp41
 70
     1
102
RTVSPost2010Prop42
 90
       50
102
RTVSPost2010PropOp42
 70
     1
102
RTVSPost2010Prop43
 90
        3
102
RTVSPost2010PropOp43
 70
     1
102
RTVSPost2010Prop44ColorIndex
 90
        5
102
RTVSPost2010Prop44ColorRGB
 90
      255
102
RTVSPost2010PropOp44
 70
     1
102
RTVSPost2010Prop45
280
     0
102
RTVSPost2010PropOp45
 70
     1
102
RTVSPost2010Prop46
 90
       50
102
RTVSPost2010PropOp46
 70
     1
102
RTVSPost2010Prop47
 90
       50
102
RTVSPost2010PropOp47
 70
     1
102
RTVSPost2010Prop48
 90
       50
102
RTVSPost2010PropOp48
 70
     1
102
RTVSPost2010Prop49
280
     0
102
RTVSPost2010PropOp49
 70
     1
102
RTVSPost2010Prop50
 90
       50
102
RTVSPost2010PropOp50
 70
     1
102
RTVSPost2010Prop51ColorIndex
 90
      256
102
RTVSPost2010Prop51ColorRGB
 90
-16777216
102
RTVSPost2010PropOp51
 70
     0
102
RTVSPost2010Prop52
140
1.0
102
RTVSPost2010PropOp52
 70
     0
102
RTVSPost2010Prop53
 90
        2
102
RTVSPost2010PropOp53
 70
     1
102
RTVSPost2010Prop54
  1
strokes_ogs.tif
102
RTVSPost2010PropOp54
 70
     1
102
RTVSPost2010Prop55
280
     0
102
RTVSPost2010PropOp55
 70
     1
102
RTVSPost2010Prop56
140
1.0
102
RTVSPost2010PropOp56
 70
     1
102
RTVSPost2010Prop57
140
1.0
102
RTVSPost2010PropOp57
 70
     1
  0
XRECORD
  5
A12
102
{ACAD_REACTORS
330
A11
102
}
330
A11
100
AcDbXrecord
280
     1
102
RTVSPost2010Prop28
280
     0
102
RTVSPost2010PropOp28
 70
     1
102
RTVSPost2010Prop29
280
     1
102
RTVSPost2010PropOp29
 70
     1
102
RTVSPost2010Prop30
280
     1
102
RTVSPost2010PropOp30
 70
     1
102
RTVSPost2010Prop31
280
     0
102
RTVSPost2010PropOp31
 70
     1
102
RTVSPost2010Prop32
280
     0
102
RTVSPost2010PropOp32
 70
     1
102
RTVSPost2010Prop33
280
     0
102
RTVSPost2010PropOp33
 70
     1
102
RTVSPost2010Prop34
280
     0
102
RTVSPost2010PropOp34
 70
     1
102
RTVSPost2010Prop35
280
     0
102
RTVSPost2010PropOp35
 70
     1
102
RTVSPost2010Prop36
280
     0
102
RTVSPost2010PropOp36
 70
     1
102
RTVSPost2010Prop37
 90
       50
102
RTVSPost2010PropOp37
 70
     1
102
RTVSPost2010Prop38
140
0.0
102
RTVSPost2010PropOp38
 70
     1
102
RTVSPost2010Prop39
140
1.0
102
RTVSPost2010PropOp39
 70
     1
102
RTVSPost2010Prop40
 90
        0
102
RTVSPost2010PropOp40
 70
     1
102
RTVSPost2010Prop41ColorIndex
 90
       18
102
RTVSPost2010Prop41ColorRGB
 90
        0
102
RTVSPost2010PropOp41
 70
     1
102
RTVSPost2010Prop42
 90
       50
102
RTVSPost2010PropOp42
 70
     1
102
RTVSPost2010Prop43
 90
        3
102
RTVSPost2010PropOp43
 70
     1
102
RTVSPost2010Prop44ColorIndex
 90
        5
102
RTVSPost2010Prop44ColorRGB
 90
      255
102
RTVSPost2010PropOp44
 70
     1
102
RTVSPost2010Prop45
280
     0
102
RTVSPost2010PropOp45
 70
     1
102
RTVSPost2010Prop46
 90
       50
102
RTVSPost2010PropOp46
 70
     1
102
RTVSPost2010Prop47
 90
       50
102
RTVSPost2010PropOp47
 70
     1
102
RTVSPost2010Prop48
 90
       50
102
RTVSPost2010PropOp48
 70
     1
102
RTVSPost2010Prop49
280
     0
102
RTVSPost2010PropOp49
 70
     1
102
RTVSPost2010Prop50
 90
       50
102
RTVSPost2010PropOp50
 70
     1
102
RTVSPost2010Prop51ColorIndex
 90
      256
102
RTVSPost2010Prop51ColorRGB
 90
-16777216
102
RTVSPost2010PropOp51
 70
     0
102
RTVSPost2010Prop52
140
1.0
102
RTVSPost2010PropOp52
 70
     0
102
RTVSPost2010Prop53
 90
        2
102
RTVSPost2010PropOp53
 70
     1
102
RTVSPost2010Prop54
  1
strokes_ogs.tif
102
RTVSPost2010PropOp54
 70
     1
102
RTVSPost2010Prop55
280
     0
102
RTVSPost2010PropOp55
 70
     1
102
RTVSPost2010Prop56
140
1.0
102
RTVSPost2010PropOp56
 70
     1
102
RTVSPost2010Prop57
140
1.0
102
RTVSPost2010PropOp57
 70
     1
  0
XRECORD
  5
9F6
102
{ACAD_REACTORS
330
9F5
102
}
330
9F5
100
AcDbXrecord
280
     1
102
RTVSPost2010Prop28
280
     0
102
RTVSPost2010PropOp28
 70
     1
102
RTVSPost2010Prop29
280
     1
102
RTVSPost2010PropOp29
 70
     1
102
RTVSPost2010Prop30
280
     1
102
RTVSPost2010PropOp30
 70
     1
102
RTVSPost2010Prop31
280
     0
102
RTVSPost2010PropOp31
 70
     1
102
RTVSPost2010Prop32
280
     0
102
RTVSPost2010PropOp32
 70
     1
102
RTVSPost2010Prop33
280
     0
102
RTVSPost2010PropOp33
 70
     1
102
RTVSPost2010Prop34
280
     0
102
RTVSPost2010PropOp34
 70
     1
102
RTVSPost2010Prop35
280
     0
102
RTVSPost2010PropOp35
 70
     1
102
RTVSPost2010Prop36
280
     0
102
RTVSPost2010PropOp36
 70
     1
102
RTVSPost2010Prop37
 90
       50
102
RTVSPost2010PropOp37
 70
     1
102
RTVSPost2010Prop38
140
0.0
102
RTVSPost2010PropOp38
 70
     1
102
RTVSPost2010Prop39
140
1.0
102
RTVSPost2010PropOp39
 70
     1
102
RTVSPost2010Prop40
 90
        0
102
RTVSPost2010PropOp40
 70
     1
102
RTVSPost2010Prop41ColorIndex
 90
       18
102
RTVSPost2010Prop41ColorRGB
 90
        0
102
RTVSPost2010PropOp41
 70
     1
102
RTVSPost2010Prop42
 90
       50
102
RTVSPost2010PropOp42
 70
     1
102
RTVSPost2010Prop43
 90
        3
102
RTVSPost2010PropOp43
 70
     1
102
RTVSPost2010Prop44ColorIndex
 90
        5
102
RTVSPost2010Prop44ColorRGB
 90
      255
102
RTVSPost2010PropOp44
 70
     1
102
RTVSPost2010Prop45
280
     0
102
RTVSPost2010PropOp45
 70
     1
102
RTVSPost2010Prop46
 90
       50
102
RTVSPost2010PropOp46
 70
     1
102
RTVSPost2010Prop47
 90
       50
102
RTVSPost2010PropOp47
 70
     1
102
RTVSPost2010Prop48
 90
       50
102
RTVSPost2010PropOp48
 70
     1
102
RTVSPost2010Prop49
280
     0
102
RTVSPost2010PropOp49
 70
     1
102
RTVSPost2010Prop50
 90
       50
102
RTVSPost2010PropOp50
 70
     1
102
RTVSPost2010Prop51ColorIndex
 90
      256
102
RTVSPost2010Prop51ColorRGB
 90
-16777216
102
RTVSPost2010PropOp51
 70
     0
102
RTVSPost2010Prop52
140
1.0
102
RTVSPost2010PropOp52
 70
     0
102
RTVSPost2010Prop53
 90
        2
102
RTVSPost2010PropOp53
 70
     1
102
RTVSPost2010Prop54
  1
strokes_ogs.tif
102
RTVSPost2010PropOp54
 70
     1
102
RTVSPost2010Prop55
280
     0
102
RTVSPost2010PropOp55
 70
     1
102
RTVSPost2010Prop56
140
1.0
102
RTVSPost2010PropOp56
 70
     1
102
RTVSPost2010Prop57
140
1.0
102
RTVSPost2010PropOp57
 70
     1
  0
XRECORD
  5
9F8
102
{ACAD_REACTORS
330
9F7
102
}
330
9F7
100
AcDbXrecord
280
     1
102
RTVSPost2010Prop28
280
     0
102
RTVSPost2010PropOp28
 70
     1
102
RTVSPost2010Prop29
280
     1
102
RTVSPost2010PropOp29
 70
     1
102
RTVSPost2010Prop30
280
     1
102
RTVSPost2010PropOp30
 70
     1
102
RTVSPost2010Prop31
280
     0
102
RTVSPost2010PropOp31
 70
     1
102
RTVSPost2010Prop32
280
     0
102
RTVSPost2010PropOp32
 70
     1
102
RTVSPost2010Prop33
280
     0
102
RTVSPost2010PropOp33
 70
     1
102
RTVSPost2010Prop34
280
     0
102
RTVSPost2010PropOp34
 70
     1
102
RTVSPost2010Prop35
280
     0
102
RTVSPost2010PropOp35
 70
     1
102
RTVSPost2010Prop36
280
     0
102
RTVSPost2010PropOp36
 70
     1
102
RTVSPost2010Prop37
 90
       50
102
RTVSPost2010PropOp37
 70
     1
102
RTVSPost2010Prop38
140
0.0
102
RTVSPost2010PropOp38
 70
     1
102
RTVSPost2010Prop39
140
1.0
102
RTVSPost2010PropOp39
 70
     1
102
RTVSPost2010Prop40
 90
        0
102
RTVSPost2010PropOp40
 70
     1
102
RTVSPost2010Prop41ColorIndex
 90
       18
102
RTVSPost2010Prop41ColorRGB
 90
        0
102
RTVSPost2010PropOp41
 70
     1
102
RTVSPost2010Prop42
 90
       50
102
RTVSPost2010PropOp42
 70
     1
102
RTVSPost2010Prop43
 90
        3
102
RTVSPost2010PropOp43
 70
     1
102
RTVSPost2010Prop44ColorIndex
 90
        5
102
RTVSPost2010Prop44ColorRGB
 90
      255
102
RTVSPost2010PropOp44
 70
     1
102
RTVSPost2010Prop45
280
     0
102
RTVSPost2010PropOp45
 70
     1
102
RTVSPost2010Prop46
 90
       50
102
RTVSPost2010PropOp46
 70
     1
102
RTVSPost2010Prop47
 90
       50
102
RTVSPost2010PropOp47
 70
     1
102
RTVSPost2010Prop48
 90
       50
102
RTVSPost2010PropOp48
 70
     1
102
RTVSPost2010Prop49
280
     0
102
RTVSPost2010PropOp49
 70
     1
102
RTVSPost2010Prop50
 90
       50
102
RTVSPost2010PropOp50
 70
     1
102
RTVSPost2010Prop51ColorIndex
 90
      256
102
RTVSPost2010Prop51ColorRGB
 90
-16777216
102
RTVSPost2010PropOp51
 70
     0
102
RTVSPost2010Prop52
140
1.0
102
RTVSPost2010PropOp52
 70
     0
102
RTVSPost2010Prop53
 90
        2
102
RTVSPost2010PropOp53
 70
     1
102
RTVSPost2010Prop54
  1
strokes_ogs.tif
102
RTVSPost2010PropOp54
 70
     1
102
RTVSPost2010Prop55
280
     0
102
RTVSPost2010PropOp55
 70
     1
102
RTVSPost2010Prop56
140
1.0
102
RTVSPost2010PropOp56
 70
     1
102
RTVSPost2010Prop57
140
1.0
102
RTVSPost2010PropOp57
 70
     1
  0
XRECORD
  5
9FA
102
{ACAD_REACTORS
330
9F9
102
}
330
9F9
100
AcDbXrecord
280
     1
102
RTVSPost2010Prop28
280
     0
102
RTVSPost2010PropOp28
 70
     1
102
RTVSPost2010Prop29
280
     1
102
RTVSPost2010PropOp29
 70
     1
102
RTVSPost2010Prop30
280
     1
102
RTVSPost2010PropOp30
 70
     1
102
RTVSPost2010Prop31
280
     0
102
RTVSPost2010PropOp31
 70
     1
102
RTVSPost2010Prop32
280
     0
102
RTVSPost2010PropOp32
 70
     1
102
RTVSPost2010Prop33
280
     0
102
RTVSPost2010PropOp33
 70
     1
102
RTVSPost2010Prop34
280
     0
102
RTVSPost2010PropOp34
 70
     1
102
RTVSPost2010Prop35
280
     0
102
RTVSPost2010PropOp35
 70
     1
102
RTVSPost2010Prop36
280
     0
102
RTVSPost2010PropOp36
 70
     1
102
RTVSPost2010Prop37
 90
       50
102
RTVSPost2010PropOp37
 70
     1
102
RTVSPost2010Prop38
140
0.0
102
RTVSPost2010PropOp38
 70
     1
102
RTVSPost2010Prop39
140
1.0
102
RTVSPost2010PropOp39
 70
     1
102
RTVSPost2010Prop40
 90
        0
102
RTVSPost2010PropOp40
 70
     1
102
RTVSPost2010Prop41ColorIndex
 90
       18
102
RTVSPost2010Prop41ColorRGB
 90
        0
102
RTVSPost2010PropOp41
 70
     1
102
RTVSPost2010Prop42
 90
       50
102
RTVSPost2010PropOp42
 70
     1
102
RTVSPost2010Prop43
 90
        3
102
RTVSPost2010PropOp43
 70
     1
102
RTVSPost2010Prop44ColorIndex
 90
        5
102
RTVSPost2010Prop44ColorRGB
 90
      255
102
RTVSPost2010PropOp44
 70
     1
102
RTVSPost2010Prop45
280
     0
102
RTVSPost2010PropOp45
 70
     1
102
RTVSPost2010Prop46
 90
       50
102
RTVSPost2010PropOp46
 70
     1
102
RTVSPost2010Prop47
 90
       50
102
RTVSPost2010PropOp47
 70
     1
102
RTVSPost2010Prop48
 90
       50
102
RTVSPost2010PropOp48
 70
     1
102
RTVSPost2010Prop49
280
     0
102
RTVSPost2010PropOp49
 70
     1
102
RTVSPost2010Prop50
 90
       50
102
RTVSPost2010PropOp50
 70
     1
102
RTVSPost2010Prop51ColorIndex
 90
      256
102
RTVSPost2010Prop51ColorRGB
 90
-16777216
102
RTVSPost2010PropOp51
 70
     0
102
RTVSPost2010Prop52
140
1.0
102
RTVSPost2010PropOp52
 70
     0
102
RTVSPost2010Prop53
 90
        2
102
RTVSPost2010PropOp53
 70
     1
102
RTVSPost2010Prop54
  1
strokes_ogs.tif
102
RTVSPost2010PropOp54
 70
     1
102
RTVSPost2010Prop55
280
     0
102
RTVSPost2010PropOp55
 70
     1
102
RTVSPost2010Prop56
140
1.0
102
RTVSPost2010PropOp56
 70
     1
102
RTVSPost2010Prop57
140
1.0
102
RTVSPost2010PropOp57
 70
     1
  0
XRECORD
  5
9FC
102
{ACAD_REACTORS
330
9FB
102
}
330
9FB
100
AcDbXrecord
280
     1
102
RTVSPost2010Prop28
280
     0
102
RTVSPost2010PropOp28
 70
     1
102
RTVSPost2010Prop29
280
     1
102
RTVSPost2010PropOp29
 70
     1
102
RTVSPost2010Prop30
280
     1
102
RTVSPost2010PropOp30
 70
     1
102
RTVSPost2010Prop31
280
     0
102
RTVSPost2010PropOp31
 70
     1
102
RTVSPost2010Prop32
280
     0
102
RTVSPost2010PropOp32
 70
     1
102
RTVSPost2010Prop33
280
     0
102
RTVSPost2010PropOp33
 70
     1
102
RTVSPost2010Prop34
280
     0
102
RTVSPost2010PropOp34
 70
     1
102
RTVSPost2010Prop35
280
     0
102
RTVSPost2010PropOp35
 70
     1
102
RTVSPost2010Prop36
280
     0
102
RTVSPost2010PropOp36
 70
     1
102
RTVSPost2010Prop37
 90
       50
102
RTVSPost2010PropOp37
 70
     1
102
RTVSPost2010Prop38
140
0.0
102
RTVSPost2010PropOp38
 70
     1
102
RTVSPost2010Prop39
140
1.0
102
RTVSPost2010PropOp39
 70
     1
102
RTVSPost2010Prop40
 90
        0
102
RTVSPost2010PropOp40
 70
     1
102
RTVSPost2010Prop41ColorIndex
 90
       18
102
RTVSPost2010Prop41ColorRGB
 90
        0
102
RTVSPost2010PropOp41
 70
     1
102
RTVSPost2010Prop42
 90
       50
102
RTVSPost2010PropOp42
 70
     1
102
RTVSPost2010Prop43
 90
        3
102
RTVSPost2010PropOp43
 70
     1
102
RTVSPost2010Prop44ColorIndex
 90
        5
102
RTVSPost2010Prop44ColorRGB
 90
      255
102
RTVSPost2010PropOp44
 70
     1
102
RTVSPost2010Prop45
280
     0
102
RTVSPost2010PropOp45
 70
     1
102
RTVSPost2010Prop46
 90
       50
102
RTVSPost2010PropOp46
 70
     1
102
RTVSPost2010Prop47
 90
       50
102
RTVSPost2010PropOp47
 70
     1
102
RTVSPost2010Prop48
 90
       50
102
RTVSPost2010PropOp48
 70
     1
102
RTVSPost2010Prop49
280
     0
102
RTVSPost2010PropOp49
 70
     1
102
RTVSPost2010Prop50
 90
       50
102
RTVSPost2010PropOp50
 70
     1
102
RTVSPost2010Prop51ColorIndex
 90
      256
102
RTVSPost2010Prop51ColorRGB
 90
-16777216
102
RTVSPost2010PropOp51
 70
     0
102
RTVSPost2010Prop52
140
1.0
102
RTVSPost2010PropOp52
 70
     0
102
RTVSPost2010Prop53
 90
        2
102
RTVSPost2010PropOp53
 70
     1
102
RTVSPost2010Prop54
  1
strokes_ogs.tif
102
RTVSPost2010PropOp54
 70
     1
102
RTVSPost2010Prop55
280
     0
102
RTVSPost2010PropOp55
 70
     1
102
RTVSPost2010Prop56
140
1.0
102
RTVSPost2010PropOp56
 70
     1
102
RTVSPost2010Prop57
140
1.0
102
RTVSPost2010PropOp57
 70
     1
  0
XRECORD
  5
A04
102
{ACAD_REACTORS
330
A03
102
}
330
A03
100
AcDbXrecord
280
     1
102
RTVSPost2010Prop28
280
     0
102
RTVSPost2010PropOp28
 70
     1
102
RTVSPost2010Prop29
280
     1
102
RTVSPost2010PropOp29
 70
     1
102
RTVSPost2010Prop30
280
     1
102
RTVSPost2010PropOp30
 70
     1
102
RTVSPost2010Prop31
280
     0
102
RTVSPost2010PropOp31
 70
     1
102
RTVSPost2010Prop32
280
     0
102
RTVSPost2010PropOp32
 70
     1
102
RTVSPost2010Prop33
280
     0
102
RTVSPost2010PropOp33
 70
     1
102
RTVSPost2010Prop34
280
     0
102
RTVSPost2010PropOp34
 70
     1
102
RTVSPost2010Prop35
280
     0
102
RTVSPost2010PropOp35
 70
     1
102
RTVSPost2010Prop36
280
     0
102
RTVSPost2010PropOp36
 70
     1
102
RTVSPost2010Prop37
 90
       50
102
RTVSPost2010PropOp37
 70
     1
102
RTVSPost2010Prop38
140
0.0
102
RTVSPost2010PropOp38
 70
     1
102
RTVSPost2010Prop39
140
1.0
102
RTVSPost2010PropOp39
 70
     1
102
RTVSPost2010Prop40
 90
        0
102
RTVSPost2010PropOp40
 70
     1
102
RTVSPost2010Prop41ColorIndex
 90
       18
102
RTVSPost2010Prop41ColorRGB
 90
        0
102
RTVSPost2010PropOp41
 70
     1
102
RTVSPost2010Prop42
 90
       50
102
RTVSPost2010PropOp42
 70
     1
102
RTVSPost2010Prop43
 90
        3
102
RTVSPost2010PropOp43
 70
     1
102
RTVSPost2010Prop44ColorIndex
 90
        5
102
RTVSPost2010Prop44ColorRGB
 90
      255
102
RTVSPost2010PropOp44
 70
     1
102
RTVSPost2010Prop45
280
     0
102
RTVSPost2010PropOp45
 70
     1
102
RTVSPost2010Prop46
 90
       50
102
RTVSPost2010PropOp46
 70
     1
102
RTVSPost2010Prop47
 90
       50
102
RTVSPost2010PropOp47
 70
     1
102
RTVSPost2010Prop48
 90
       50
102
RTVSPost2010PropOp48
 70
     1
102
RTVSPost2010Prop49
280
     0
102
RTVSPost2010PropOp49
 70
     1
102
RTVSPost2010Prop50
 90
       50
102
RTVSPost2010PropOp50
 70
     1
102
RTVSPost2010Prop51ColorIndex
 90
      256
102
RTVSPost2010Prop51ColorRGB
 90
-16777216
102
RTVSPost2010PropOp51
 70
     0
102
RTVSPost2010Prop52
140
1.0
102
RTVSPost2010PropOp52
 70
     0
102
RTVSPost2010Prop53
 90
        2
102
RTVSPost2010PropOp53
 70
     1
102
RTVSPost2010Prop54
  1
strokes_ogs.tif
102
RTVSPost2010PropOp54
 70
     1
102
RTVSPost2010Prop55
280
     0
102
RTVSPost2010PropOp55
 70
     1
102
RTVSPost2010Prop56
140
1.0
102
RTVSPost2010PropOp56
 70
     1
102
RTVSPost2010Prop57
140
1.0
102
RTVSPost2010PropOp57
 70
     1
  0
XRECORD
  5
A20
102
{ACAD_REACTORS
330
A1F
102
}
330
A1F
100
AcDbXrecord
280
     1
102
RTVSPost2010Prop28
280
     0
102
RTVSPost2010PropOp28
 70
     0
102
RTVSPost2010Prop29
280
     1
102
RTVSPost2010PropOp29
 70
     0
102
RTVSPost2010Prop30
280
     1
102
RTVSPost2010PropOp30
 70
     0
102
RTVSPost2010Prop31
280
     0
102
RTVSPost2010PropOp31
 70
     0
102
RTVSPost2010Prop32
280
     0
102
RTVSPost2010PropOp32
 70
     0
102
RTVSPost2010Prop33
280
     0
102
RTVSPost2010PropOp33
 70
     1
102
RTVSPost2010Prop34
280
     0
102
RTVSPost2010PropOp34
 70
     1
102
RTVSPost2010Prop35
280
     0
102
RTVSPost2010PropOp35
 70
     1
102
RTVSPost2010Prop36
280
     0
102
RTVSPost2010PropOp36
 70
     1
102
RTVSPost2010Prop37
 90
       50
102
RTVSPost2010PropOp37
 70
     1
102
RTVSPost2010Prop38
140
0.0
102
RTVSPost2010PropOp38
 70
     1
102
RTVSPost2010Prop39
140
1.0
102
RTVSPost2010PropOp39
 70
     1
102
RTVSPost2010Prop40
 90
        0
102
RTVSPost2010PropOp40
 70
     1
102
RTVSPost2010Prop41ColorIndex
 90
       18
102
RTVSPost2010Prop41ColorRGB
 90
        0
102
RTVSPost2010PropOp41
 70
     1
102
RTVSPost2010Prop42
 90
       50
102
RTVSPost2010PropOp42
 70
     1
102
RTVSPost2010Prop43
 90
        3
102
RTVSPost2010PropOp43
 70
     1
102
RTVSPost2010Prop44ColorIndex
 90
        5
102
RTVSPost2010Prop44ColorRGB
 90
      255
102
RTVSPost2010PropOp44
 70
     1
102
RTVSPost2010Prop45
280
     0
102
RTVSPost2010PropOp45
 70
     1
102
RTVSPost2010Prop46
 90
       50
102
RTVSPost2010PropOp46
 70
     1
102
RTVSPost2010Prop47
 90
       50
102
RTVSPost2010PropOp47
 70
     1
102
RTVSPost2010Prop48
 90
       50
102
RTVSPost2010PropOp48
 70
     1
102
RTVSPost2010Prop49
280
     0
102
RTVSPost2010PropOp49
 70
     1
102
RTVSPost2010Prop50
 90
       50
102
RTVSPost2010PropOp50
 70
     1
102
RTVSPost2010Prop51ColorIndex
 90
      256
102
RTVSPost2010Prop51ColorRGB
 90
-16777216
102
RTVSPost2010PropOp51
 70
     0
102
RTVSPost2010Prop52
140
1.0
102
RTVSPost2010PropOp52
 70
     0
102
RTVSPost2010Prop53
 90
        2
102
RTVSPost2010PropOp53
 70
     1
102
RTVSPost2010Prop54
  1
strokes_ogs.tif
102
RTVSPost2010PropOp54
 70
     1
102
RTVSPost2010Prop55
280
     0
102
RTVSPost2010PropOp55
 70
     1
102
RTVSPost2010Prop56
140
1.0
102
RTVSPost2010PropOp56
 70
     1
102
RTVSPost2010Prop57
140
1.0
102
RTVSPost2010PropOp57
 70
     1
  0
XRECORD
  5
A10
102
{ACAD_REACTORS
330
A0F
102
}
330
A0F
100
AcDbXrecord
280
     1
102
RTVSPost2010Prop28
280
     0
102
RTVSPost2010PropOp28
 70
     1
102
RTVSPost2010Prop29
280
     1
102
RTVSPost2010PropOp29
 70
     1
102
RTVSPost2010Prop30
280
     1
102
RTVSPost2010PropOp30
 70
     1
102
RTVSPost2010Prop31
280
     0
102
RTVSPost2010PropOp31
 70
     1
102
RTVSPost2010Prop32
280
     0
102
RTVSPost2010PropOp32
 70
     1
102
RTVSPost2010Prop33
280
     0
102
RTVSPost2010PropOp33
 70
     1
102
RTVSPost2010Prop34
280
     0
102
RTVSPost2010PropOp34
 70
     1
102
RTVSPost2010Prop35
280
     0
102
RTVSPost2010PropOp35
 70
     1
102
RTVSPost2010Prop36
280
     0
102
RTVSPost2010PropOp36
 70
     1
102
RTVSPost2010Prop37
 90
       50
102
RTVSPost2010PropOp37
 70
     1
102
RTVSPost2010Prop38
140
0.0
102
RTVSPost2010PropOp38
 70
     1
102
RTVSPost2010Prop39
140
1.0
102
RTVSPost2010PropOp39
 70
     1
102
RTVSPost2010Prop40
 90
        0
102
RTVSPost2010PropOp40
 70
     1
102
RTVSPost2010Prop41ColorIndex
 90
       18
102
RTVSPost2010Prop41ColorRGB
 90
        0
102
RTVSPost2010PropOp41
 70
     1
102
RTVSPost2010Prop42
 90
       50
102
RTVSPost2010PropOp42
 70
     1
102
RTVSPost2010Prop43
 90
        3
102
RTVSPost2010PropOp43
 70
     1
102
RTVSPost2010Prop44ColorIndex
 90
        5
102
RTVSPost2010Prop44ColorRGB
 90
      255
102
RTVSPost2010PropOp44
 70
     1
102
RTVSPost2010Prop45
280
     0
102
RTVSPost2010PropOp45
 70
     1
102
RTVSPost2010Prop46
 90
       50
102
RTVSPost2010PropOp46
 70
     1
102
RTVSPost2010Prop47
 90
       50
102
RTVSPost2010PropOp47
 70
     1
102
RTVSPost2010Prop48
 90
       50
102
RTVSPost2010PropOp48
 70
     1
102
RTVSPost2010Prop49
280
     0
102
RTVSPost2010PropOp49
 70
     1
102
RTVSPost2010Prop50
 90
       50
102
RTVSPost2010PropOp50
 70
     1
102
RTVSPost2010Prop51ColorIndex
 90
      256
102
RTVSPost2010Prop51ColorRGB
 90
-16777216
102
RTVSPost2010PropOp51
 70
     0
102
RTVSPost2010Prop52
140
1.0
102
RTVSPost2010PropOp52
 70
     0
102
RTVSPost2010Prop53
 90
        2
102
RTVSPost2010PropOp53
 70
     1
102
RTVSPost2010Prop54
  1
strokes_ogs.tif
102
RTVSPost2010PropOp54
 70
     1
102
RTVSPost2010Prop55
280
     0
102
RTVSPost2010PropOp55
 70
     1
102
RTVSPost2010Prop56
140
1.0
102
RTVSPost2010PropOp56
 70
     1
102
RTVSPost2010Prop57
140
1.0
102
RTVSPost2010PropOp57
 70
     1
  0
XRECORD
  5
A22
102
{ACAD_REACTORS
330
A21
102
}
330
A21
100
AcDbXrecord
280
     1
102
RTVSPost2010Prop28
280
     0
102
RTVSPost2010PropOp28
 70
     0
102
RTVSPost2010Prop29
280
     1
102
RTVSPost2010PropOp29
 70
     0
102
RTVSPost2010Prop30
280
     1
102
RTVSPost2010PropOp30
 70
     0
102
RTVSPost2010Prop31
280
     0
102
RTVSPost2010PropOp31
 70
     0
102
RTVSPost2010Prop32
280
     0
102
RTVSPost2010PropOp32
 70
     0
102
RTVSPost2010Prop33
280
     0
102
RTVSPost2010PropOp33
 70
     1
102
RTVSPost2010Prop34
280
     0
102
RTVSPost2010PropOp34
 70
     1
102
RTVSPost2010Prop35
280
     0
102
RTVSPost2010PropOp35
 70
     1
102
RTVSPost2010Prop36
280
     0
102
RTVSPost2010PropOp36
 70
     1
102
RTVSPost2010Prop37
 90
       50
102
RTVSPost2010PropOp37
 70
     1
102
RTVSPost2010Prop38
140
0.0
102
RTVSPost2010PropOp38
 70
     1
102
RTVSPost2010Prop39
140
1.0
102
RTVSPost2010PropOp39
 70
     1
102
RTVSPost2010Prop40
 90
        0
102
RTVSPost2010PropOp40
 70
     1
102
RTVSPost2010Prop41ColorIndex
 90
       18
102
RTVSPost2010Prop41ColorRGB
 90
        0
102
RTVSPost2010PropOp41
 70
     1
102
RTVSPost2010Prop42
 90
       50
102
RTVSPost2010PropOp42
 70
     1
102
RTVSPost2010Prop43
 90
        3
102
RTVSPost2010PropOp43
 70
     1
102
RTVSPost2010Prop44ColorIndex
 90
        5
102
RTVSPost2010Prop44ColorRGB
 90
      255
102
RTVSPost2010PropOp44
 70
     1
102
RTVSPost2010Prop45
280
     0
102
RTVSPost2010PropOp45
 70
     1
102
RTVSPost2010Prop46
 90
       50
102
RTVSPost2010PropOp46
 70
     1
102
RTVSPost2010Prop47
 90
       50
102
RTVSPost2010PropOp47
 70
     1
102
RTVSPost2010Prop48
 90
       50
102
RTVSPost2010PropOp48
 70
     1
102
RTVSPost2010Prop49
280
     0
102
RTVSPost2010PropOp49
 70
     1
102
RTVSPost2010Prop50
 90
       50
102
RTVSPost2010PropOp50
 70
     1
102
RTVSPost2010Prop51ColorIndex
 90
      256
102
RTVSPost2010Prop51ColorRGB
 90
-16777216
102
RTVSPost2010PropOp51
 70
     0
102
RTVSPost2010Prop52
140
1.0
102
RTVSPost2010PropOp52
 70
     0
102
RTVSPost2010Prop53
 90
        2
102
RTVSPost2010PropOp53
 70
     1
102
RTVSPost2010Prop54
  1
strokes_ogs.tif
102
RTVSPost2010PropOp54
 70
     1
102
RTVSPost2010Prop55
280
     0
102
RTVSPost2010PropOp55
 70
     1
102
RTVSPost2010Prop56
140
1.0
102
RTVSPost2010PropOp56
 70
     1
102
RTVSPost2010Prop57
140
1.0
102
RTVSPost2010PropOp57
 70
     1
  0
XRECORD
  5
A08
102
{ACAD_REACTORS
330
A07
102
}
330
A07
100
AcDbXrecord
280
     1
102
RTVSPost2010Prop28
280
     0
102
RTVSPost2010PropOp28
 70
     1
102
RTVSPost2010Prop29
280
     1
102
RTVSPost2010PropOp29
 70
     1
102
RTVSPost2010Prop30
280
     1
102
RTVSPost2010PropOp30
 70
     1
102
RTVSPost2010Prop31
280
     0
102
RTVSPost2010PropOp31
 70
     1
102
RTVSPost2010Prop32
280
     0
102
RTVSPost2010PropOp32
 70
     1
102
RTVSPost2010Prop33
280
     0
102
RTVSPost2010PropOp33
 70
     1
102
RTVSPost2010Prop34
280
     0
102
RTVSPost2010PropOp34
 70
     1
102
RTVSPost2010Prop35
280
     0
102
RTVSPost2010PropOp35
 70
     1
102
RTVSPost2010Prop36
280
     0
102
RTVSPost2010PropOp36
 70
     1
102
RTVSPost2010Prop37
 90
       50
102
RTVSPost2010PropOp37
 70
     1
102
RTVSPost2010Prop38
140
0.0
102
RTVSPost2010PropOp38
 70
     1
102
RTVSPost2010Prop39
140
1.0
102
RTVSPost2010PropOp39
 70
     1
102
RTVSPost2010Prop40
 90
        0
102
RTVSPost2010PropOp40
 70
     1
102
RTVSPost2010Prop41ColorIndex
 90
       18
102
RTVSPost2010Prop41ColorRGB
 90
        0
102
RTVSPost2010PropOp41
 70
     1
102
RTVSPost2010Prop42
 90
       50
102
RTVSPost2010PropOp42
 70
     1
102
RTVSPost2010Prop43
 90
        3
102
RTVSPost2010PropOp43
 70
     1
102
RTVSPost2010Prop44ColorIndex
 90
        5
102
RTVSPost2010Prop44ColorRGB
 90
      255
102
RTVSPost2010PropOp44
 70
     1
102
RTVSPost2010Prop45
280
     0
102
RTVSPost2010PropOp45
 70
     1
102
RTVSPost2010Prop46
 90
       50
102
RTVSPost2010PropOp46
 70
     1
102
RTVSPost2010Prop47
 90
       50
102
RTVSPost2010PropOp47
 70
     1
102
RTVSPost2010Prop48
 90
       50
102
RTVSPost2010PropOp48
 70
     1
102
RTVSPost2010Prop49
280
     0
102
RTVSPost2010PropOp49
 70
     1
102
RTVSPost2010Prop50
 90
       50
102
RTVSPost2010PropOp50
 70
     1
102
RTVSPost2010Prop51ColorIndex
 90
      256
102
RTVSPost2010Prop51ColorRGB
 90
-16777216
102
RTVSPost2010PropOp51
 70
     0
102
RTVSPost2010Prop52
140
1.0
102
RTVSPost2010PropOp52
 70
     0
102
RTVSPost2010Prop53
 90
        2
102
RTVSPost2010PropOp53
 70
     1
102
RTVSPost2010Prop54
  1
strokes_ogs.tif
102
RTVSPost2010PropOp54
 70
     1
102
RTVSPost2010Prop55
280
     0
102
RTVSPost2010PropOp55
 70
     1
102
RTVSPost2010Prop56
140
1.0
102
RTVSPost2010PropOp56
 70
     1
102
RTVSPost2010Prop57
140
1.0
102
RTVSPost2010PropOp57
 70
     1
  0
XRECORD
  5
A1E
102
{ACAD_REACTORS
330
A1D
102
}
330
A1D
100
AcDbXrecord
280
     1
102
RTVSPost2010Prop28
280
     0
102
RTVSPost2010PropOp28
 70
     1
102
RTVSPost2010Prop29
280
     1
102
RTVSPost2010PropOp29
 70
     1
102
RTVSPost2010Prop30
280
     1
102
RTVSPost2010PropOp30
 70
     1
102
RTVSPost2010Prop31
280
     0
102
RTVSPost2010PropOp31
 70
     1
102
RTVSPost2010Prop32
280
     0
102
RTVSPost2010PropOp32
 70
     1
102
RTVSPost2010Prop33
280
     0
102
RTVSPost2010PropOp33
 70
     1
102
RTVSPost2010Prop34
280
     0
102
RTVSPost2010PropOp34
 70
     1
102
RTVSPost2010Prop35
280
     0
102
RTVSPost2010PropOp35
 70
     1
102
RTVSPost2010Prop36
280
     0
102
RTVSPost2010PropOp36
 70
     1
102
RTVSPost2010Prop37
 90
       50
102
RTVSPost2010PropOp37
 70
     1
102
RTVSPost2010Prop38
140
0.0
102
RTVSPost2010PropOp38
 70
     1
102
RTVSPost2010Prop39
140
1.0
102
RTVSPost2010PropOp39
 70
     1
102
RTVSPost2010Prop40
 90
        0
102
RTVSPost2010PropOp40
 70
     1
102
RTVSPost2010Prop41ColorIndex
 90
       18
102
RTVSPost2010Prop41ColorRGB
 90
        0
102
RTVSPost2010PropOp41
 70
     1
102
RTVSPost2010Prop42
 90
       50
102
RTVSPost2010PropOp42
 70
     1
102
RTVSPost2010Prop43
 90
        3
102
RTVSPost2010PropOp43
 70
     1
102
RTVSPost2010Prop44ColorIndex
 90
        5
102
RTVSPost2010Prop44ColorRGB
 90
      255
102
RTVSPost2010PropOp44
 70
     1
102
RTVSPost2010Prop45
280
     0
102
RTVSPost2010PropOp45
 70
     1
102
RTVSPost2010Prop46
 90
       50
102
RTVSPost2010PropOp46
 70
     1
102
RTVSPost2010Prop47
 90
       50
102
RTVSPost2010PropOp47
 70
     1
102
RTVSPost2010Prop48
 90
       50
102
RTVSPost2010PropOp48
 70
     1
102
RTVSPost2010Prop49
280
     0
102
RTVSPost2010PropOp49
 70
     1
102
RTVSPost2010Prop50
 90
       50
102
RTVSPost2010PropOp50
 70
     1
102
RTVSPost2010Prop51ColorIndex
 90
      256
102
RTVSPost2010Prop51ColorRGB
 90
-16777216
102
RTVSPost2010PropOp51
 70
     0
102
RTVSPost2010Prop52
140
1.0
102
RTVSPost2010PropOp52
 70
     0
102
RTVSPost2010Prop53
 90
        2
102
RTVSPost2010PropOp53
 70
     1
102
RTVSPost2010Prop54
  1
strokes_ogs.tif
102
RTVSPost2010PropOp54
 70
     1
102
RTVSPost2010Prop55
280
     0
102
RTVSPost2010PropOp55
 70
     1
102
RTVSPost2010Prop56
140
1.0
102
RTVSPost2010PropOp56
 70
     1
102
RTVSPost2010Prop57
140
1.0
102
RTVSPost2010PropOp57
 70
     1
  0
XRECORD
  5
A1C
102
{ACAD_REACTORS
330
A1B
102
}
330
A1B
100
AcDbXrecord
280
     1
102
RTVSPost2010Prop28
280
     0
102
RTVSPost2010PropOp28
 70
     1
102
RTVSPost2010Prop29
280
     1
102
RTVSPost2010PropOp29
 70
     1
102
RTVSPost2010Prop30
280
     1
102
RTVSPost2010PropOp30
 70
     1
102
RTVSPost2010Prop31
280
     0
102
RTVSPost2010PropOp31
 70
     1
102
RTVSPost2010Prop32
280
     0
102
RTVSPost2010PropOp32
 70
     1
102
RTVSPost2010Prop33
280
     0
102
RTVSPost2010PropOp33
 70
     1
102
RTVSPost2010Prop34
280
     0
102
RTVSPost2010PropOp34
 70
     1
102
RTVSPost2010Prop35
280
     0
102
RTVSPost2010PropOp35
 70
     1
102
RTVSPost2010Prop36
280
     0
102
RTVSPost2010PropOp36
 70
     1
102
RTVSPost2010Prop37
 90
       50
102
RTVSPost2010PropOp37
 70
     1
102
RTVSPost2010Prop38
140
0.0
102
RTVSPost2010PropOp38
 70
     1
102
RTVSPost2010Prop39
140
1.0
102
RTVSPost2010PropOp39
 70
     1
102
RTVSPost2010Prop40
 90
        0
102
RTVSPost2010PropOp40
 70
     1
102
RTVSPost2010Prop41ColorIndex
 90
       18
102
RTVSPost2010Prop41ColorRGB
 90
        0
102
RTVSPost2010PropOp41
 70
     1
102
RTVSPost2010Prop42
 90
       50
102
RTVSPost2010PropOp42
 70
     1
102
RTVSPost2010Prop43
 90
        3
102
RTVSPost2010PropOp43
 70
     1
102
RTVSPost2010Prop44ColorIndex
 90
        5
102
RTVSPost2010Prop44ColorRGB
 90
      255
102
RTVSPost2010PropOp44
 70
     1
102
RTVSPost2010Prop45
280
     0
102
RTVSPost2010PropOp45
 70
     1
102
RTVSPost2010Prop46
 90
       50
102
RTVSPost2010PropOp46
 70
     1
102
RTVSPost2010Prop47
 90
       50
102
RTVSPost2010PropOp47
 70
     1
102
RTVSPost2010Prop48
 90
       50
102
RTVSPost2010PropOp48
 70
     1
102
RTVSPost2010Prop49
280
     0
102
RTVSPost2010PropOp49
 70
     1
102
RTVSPost2010Prop50
 90
       50
102
RTVSPost2010PropOp50
 70
     1
102
RTVSPost2010Prop51ColorIndex
 90
      256
102
RTVSPost2010Prop51ColorRGB
 90
-16777216
102
RTVSPost2010PropOp51
 70
     0
102
RTVSPost2010Prop52
140
1.0
102
RTVSPost2010PropOp52
 70
     0
102
RTVSPost2010Prop53
 90
        2
102
RTVSPost2010PropOp53
 70
     1
102
RTVSPost2010Prop54
  1
strokes_ogs.tif
102
RTVSPost2010PropOp54
 70
     1
102
RTVSPost2010Prop55
280
     0
102
RTVSPost2010PropOp55
 70
     1
102
RTVSPost2010Prop56
140
1.0
102
RTVSPost2010PropOp56
 70
     1
102
RTVSPost2010Prop57
140
1.0
102
RTVSPost2010PropOp57
 70
     1
  0
XRECORD
  5
A16
102
{ACAD_REACTORS
330
A15
102
}
330
A15
100
AcDbXrecord
280
     1
102
RTVSPost2010Prop28
280
     0
102
RTVSPost2010PropOp28
 70
     1
102
RTVSPost2010Prop29
280
     1
102
RTVSPost2010PropOp29
 70
     1
102
RTVSPost2010Prop30
280
     1
102
RTVSPost2010PropOp30
 70
     1
102
RTVSPost2010Prop31
280
     0
102
RTVSPost2010PropOp31
 70
     1
102
RTVSPost2010Prop32
280
     0
102
RTVSPost2010PropOp32
 70
     1
102
RTVSPost2010Prop33
280
     0
102
RTVSPost2010PropOp33
 70
     1
102
RTVSPost2010Prop34
280
     0
102
RTVSPost2010PropOp34
 70
     1
102
RTVSPost2010Prop35
280
     0
102
RTVSPost2010PropOp35
 70
     1
102
RTVSPost2010Prop36
280
     0
102
RTVSPost2010PropOp36
 70
     1
102
RTVSPost2010Prop37
 90
       50
102
RTVSPost2010PropOp37
 70
     1
102
RTVSPost2010Prop38
140
0.0
102
RTVSPost2010PropOp38
 70
     1
102
RTVSPost2010Prop39
140
1.0
102
RTVSPost2010PropOp39
 70
     1
102
RTVSPost2010Prop40
 90
        0
102
RTVSPost2010PropOp40
 70
     1
102
RTVSPost2010Prop41ColorIndex
 90
       18
102
RTVSPost2010Prop41ColorRGB
 90
        0
102
RTVSPost2010PropOp41
 70
     1
102
RTVSPost2010Prop42
 90
       50
102
RTVSPost2010PropOp42
 70
     1
102
RTVSPost2010Prop43
 90
        3
102
RTVSPost2010PropOp43
 70
     1
102
RTVSPost2010Prop44ColorIndex
 90
        5
102
RTVSPost2010Prop44ColorRGB
 90
      255
102
RTVSPost2010PropOp44
 70
     1
102
RTVSPost2010Prop45
280
     0
102
RTVSPost2010PropOp45
 70
     1
102
RTVSPost2010Prop46
 90
       50
102
RTVSPost2010PropOp46
 70
     1
102
RTVSPost2010Prop47
 90
       50
102
RTVSPost2010PropOp47
 70
     1
102
RTVSPost2010Prop48
 90
       50
102
RTVSPost2010PropOp48
 70
     1
102
RTVSPost2010Prop49
280
     0
102
RTVSPost2010PropOp49
 70
     1
102
RTVSPost2010Prop50
 90
       50
102
RTVSPost2010PropOp50
 70
     1
102
RTVSPost2010Prop51ColorIndex
 90
      256
102
RTVSPost2010Prop51ColorRGB
 90
-16777216
102
RTVSPost2010PropOp51
 70
     0
102
RTVSPost2010Prop52
140
1.0
102
RTVSPost2010PropOp52
 70
     0
102
RTVSPost2010Prop53
 90
        2
102
RTVSPost2010PropOp53
 70
     1
102
RTVSPost2010Prop54
  1
strokes_ogs.tif
102
RTVSPost2010PropOp54
 70
     1
102
RTVSPost2010Prop55
280
     0
102
RTVSPost2010PropOp55
 70
     1
102
RTVSPost2010Prop56
140
1.0
102
RTVSPost2010PropOp56
 70
     1
102
RTVSPost2010Prop57
140
1.0
102
RTVSPost2010PropOp57
 70
     1
  0
XRECORD
  5
A18
102
{ACAD_REACTORS
330
A17
102
}
330
A17
100
AcDbXrecord
280
     1
102
RTVSPost2010Prop28
280
     0
102
RTVSPost2010PropOp28
 70
     1
102
RTVSPost2010Prop29
280
     1
102
RTVSPost2010PropOp29
 70
     1
102
RTVSPost2010Prop30
280
     1
102
RTVSPost2010PropOp30
 70
     1
102
RTVSPost2010Prop31
280
     0
102
RTVSPost2010PropOp31
 70
     1
102
RTVSPost2010Prop32
280
     0
102
RTVSPost2010PropOp32
 70
     1
102
RTVSPost2010Prop33
280
     0
102
RTVSPost2010PropOp33
 70
     1
102
RTVSPost2010Prop34
280
     0
102
RTVSPost2010PropOp34
 70
     1
102
RTVSPost2010Prop35
280
     0
102
RTVSPost2010PropOp35
 70
     1
102
RTVSPost2010Prop36
280
     0
102
RTVSPost2010PropOp36
 70
     1
102
RTVSPost2010Prop37
 90
       50
102
RTVSPost2010PropOp37
 70
     1
102
RTVSPost2010Prop38
140
0.0
102
RTVSPost2010PropOp38
 70
     1
102
RTVSPost2010Prop39
140
1.0
102
RTVSPost2010PropOp39
 70
     1
102
RTVSPost2010Prop40
 90
        0
102
RTVSPost2010PropOp40
 70
     1
102
RTVSPost2010Prop41ColorIndex
 90
       18
102
RTVSPost2010Prop41ColorRGB
 90
        0
102
RTVSPost2010PropOp41
 70
     1
102
RTVSPost2010Prop42
 90
       50
102
RTVSPost2010PropOp42
 70
     1
102
RTVSPost2010Prop43
 90
        3
102
RTVSPost2010PropOp43
 70
     1
102
RTVSPost2010Prop44ColorIndex
 90
        5
102
RTVSPost2010Prop44ColorRGB
 90
      255
102
RTVSPost2010PropOp44
 70
     1
102
RTVSPost2010Prop45
280
     0
102
RTVSPost2010PropOp45
 70
     1
102
RTVSPost2010Prop46
 90
       50
102
RTVSPost2010PropOp46
 70
     1
102
RTVSPost2010Prop47
 90
       50
102
RTVSPost2010PropOp47
 70
     1
102
RTVSPost2010Prop48
 90
       50
102
RTVSPost2010PropOp48
 70
     1
102
RTVSPost2010Prop49
280
     0
102
RTVSPost2010PropOp49
 70
     1
102
RTVSPost2010Prop50
 90
       50
102
RTVSPost2010PropOp50
 70
     1
102
RTVSPost2010Prop51ColorIndex
 90
      256
102
RTVSPost2010Prop51ColorRGB
 90
-16777216
102
RTVSPost2010PropOp51
 70
     0
102
RTVSPost2010Prop52
140
1.0
102
RTVSPost2010PropOp52
 70
     0
102
RTVSPost2010Prop53
 90
        2
102
RTVSPost2010PropOp53
 70
     1
102
RTVSPost2010Prop54
  1
strokes_ogs.tif
102
RTVSPost2010PropOp54
 70
     1
102
RTVSPost2010Prop55
280
     0
102
RTVSPost2010PropOp55
 70
     1
102
RTVSPost2010Prop56
140
1.0
102
RTVSPost2010PropOp56
 70
     1
102
RTVSPost2010Prop57
140
1.0
102
RTVSPost2010PropOp57
 70
     1
  0
XRECORD
  5
A0E
102
{ACAD_REACTORS
330
A0D
102
}
330
A0D
100
AcDbXrecord
280
     1
102
RTVSPost2010Prop28
280
     0
102
RTVSPost2010PropOp28
 70
     1
102
RTVSPost2010Prop29
280
     1
102
RTVSPost2010PropOp29
 70
     1
102
RTVSPost2010Prop30
280
     1
102
RTVSPost2010PropOp30
 70
     1
102
RTVSPost2010Prop31
280
     0
102
RTVSPost2010PropOp31
 70
     1
102
RTVSPost2010Prop32
280
     0
102
RTVSPost2010PropOp32
 70
     1
102
RTVSPost2010Prop33
280
     0
102
RTVSPost2010PropOp33
 70
     1
102
RTVSPost2010Prop34
280
     0
102
RTVSPost2010PropOp34
 70
     1
102
RTVSPost2010Prop35
280
     0
102
RTVSPost2010PropOp35
 70
     1
102
RTVSPost2010Prop36
280
     0
102
RTVSPost2010PropOp36
 70
     1
102
RTVSPost2010Prop37
 90
       50
102
RTVSPost2010PropOp37
 70
     1
102
RTVSPost2010Prop38
140
0.0
102
RTVSPost2010PropOp38
 70
     1
102
RTVSPost2010Prop39
140
1.0
102
RTVSPost2010PropOp39
 70
     1
102
RTVSPost2010Prop40
 90
        0
102
RTVSPost2010PropOp40
 70
     1
102
RTVSPost2010Prop41ColorIndex
 90
       18
102
RTVSPost2010Prop41ColorRGB
 90
        0
102
RTVSPost2010PropOp41
 70
     1
102
RTVSPost2010Prop42
 90
       50
102
RTVSPost2010PropOp42
 70
     1
102
RTVSPost2010Prop43
 90
        3
102
RTVSPost2010PropOp43
 70
     1
102
RTVSPost2010Prop44ColorIndex
 90
        5
102
RTVSPost2010Prop44ColorRGB
 90
      255
102
RTVSPost2010PropOp44
 70
     1
102
RTVSPost2010Prop45
280
     0
102
RTVSPost2010PropOp45
 70
     1
102
RTVSPost2010Prop46
 90
       50
102
RTVSPost2010PropOp46
 70
     1
102
RTVSPost2010Prop47
 90
       50
102
RTVSPost2010PropOp47
 70
     1
102
RTVSPost2010Prop48
 90
       50
102
RTVSPost2010PropOp48
 70
     1
102
RTVSPost2010Prop49
280
     0
102
RTVSPost2010PropOp49
 70
     1
102
RTVSPost2010Prop50
 90
       50
102
RTVSPost2010PropOp50
 70
     1
102
RTVSPost2010Prop51ColorIndex
 90
      256
102
RTVSPost2010Prop51ColorRGB
 90
-16777216
102
RTVSPost2010PropOp51
 70
     0
102
RTVSPost2010Prop52
140
1.0
102
RTVSPost2010PropOp52
 70
     0
102
RTVSPost2010Prop53
 90
        2
102
RTVSPost2010PropOp53
 70
     1
102
RTVSPost2010Prop54
  1
strokes_ogs.tif
102
RTVSPost2010PropOp54
 70
     1
102
RTVSPost2010Prop55
280
     0
102
RTVSPost2010PropOp55
 70
     1
102
RTVSPost2010Prop56
140
1.0
102
RTVSPost2010PropOp56
 70
     1
102
RTVSPost2010Prop57
140
1.0
102
RTVSPost2010PropOp57
 70
     1
  0
XRECORD
  5
A02
102
{ACAD_REACTORS
330
A01
102
}
330
A01
100
AcDbXrecord
280
     1
102
RTVSPost2010Prop28
280
     0
102
RTVSPost2010PropOp28
 70
     1
102
RTVSPost2010Prop29
280
     1
102
RTVSPost2010PropOp29
 70
     1
102
RTVSPost2010Prop30
280
     1
102
RTVSPost2010PropOp30
 70
     1
102
RTVSPost2010Prop31
280
     0
102
RTVSPost2010PropOp31
 70
     1
102
RTVSPost2010Prop32
280
     0
102
RTVSPost2010PropOp32
 70
     1
102
RTVSPost2010Prop33
280
     0
102
RTVSPost2010PropOp33
 70
     1
102
RTVSPost2010Prop34
280
     0
102
RTVSPost2010PropOp34
 70
     1
102
RTVSPost2010Prop35
280
     0
102
RTVSPost2010PropOp35
 70
     1
102
RTVSPost2010Prop36
280
     0
102
RTVSPost2010PropOp36
 70
     1
102
RTVSPost2010Prop37
 90
       50
102
RTVSPost2010PropOp37
 70
     1
102
RTVSPost2010Prop38
140
0.0
102
RTVSPost2010PropOp38
 70
     1
102
RTVSPost2010Prop39
140
1.0
102
RTVSPost2010PropOp39
 70
     1
102
RTVSPost2010Prop40
 90
        0
102
RTVSPost2010PropOp40
 70
     1
102
RTVSPost2010Prop41ColorIndex
 90
       18
102
RTVSPost2010Prop41ColorRGB
 90
        0
102
RTVSPost2010PropOp41
 70
     1
102
RTVSPost2010Prop42
 90
       50
102
RTVSPost2010PropOp42
 70
     1
102
RTVSPost2010Prop43
 90
        3
102
RTVSPost2010PropOp43
 70
     1
102
RTVSPost2010Prop44ColorIndex
 90
        5
102
RTVSPost2010Prop44ColorRGB
 90
      255
102
RTVSPost2010PropOp44
 70
     1
102
RTVSPost2010Prop45
280
     0
102
RTVSPost2010PropOp45
 70
     1
102
RTVSPost2010Prop46
 90
       50
102
RTVSPost2010PropOp46
 70
     1
102
RTVSPost2010Prop47
 90
       50
102
RTVSPost2010PropOp47
 70
     1
102
RTVSPost2010Prop48
 90
       50
102
RTVSPost2010PropOp48
 70
     1
102
RTVSPost2010Prop49
280
     0
102
RTVSPost2010PropOp49
 70
     1
102
RTVSPost2010Prop50
 90
       50
102
RTVSPost2010PropOp50
 70
     1
102
RTVSPost2010Prop51ColorIndex
 90
      256
102
RTVSPost2010Prop51ColorRGB
 90
-16777216
102
RTVSPost2010PropOp51
 70
     0
102
RTVSPost2010Prop52
140
1.0
102
RTVSPost2010PropOp52
 70
     0
102
RTVSPost2010Prop53
 90
        2
102
RTVSPost2010PropOp53
 70
     1
102
RTVSPost2010Prop54
  1
strokes_ogs.tif
102
RTVSPost2010PropOp54
 70
     1
102
RTVSPost2010Prop55
280
     0
102
RTVSPost2010PropOp55
 70
     1
102
RTVSPost2010Prop56
140
1.0
102
RTVSPost2010PropOp56
 70
     1
102
RTVSPost2010Prop57
140
1.0
102
RTVSPost2010PropOp57
 70
     1
  0
XRECORD
  5
A1A
102
{ACAD_REACTORS
330
A19
102
}
330
A19
100
AcDbXrecord
280
     1
102
RTVSPost2010Prop28
280
     0
102
RTVSPost2010PropOp28
 70
     1
102
RTVSPost2010Prop29
280
     1
102
RTVSPost2010PropOp29
 70
     1
102
RTVSPost2010Prop30
280
     1
102
RTVSPost2010PropOp30
 70
     1
102
RTVSPost2010Prop31
280
     0
102
RTVSPost2010PropOp31
 70
     1
102
RTVSPost2010Prop32
280
     0
102
RTVSPost2010PropOp32
 70
     1
102
RTVSPost2010Prop33
280
     0
102
RTVSPost2010PropOp33
 70
     1
102
RTVSPost2010Prop34
280
     0
102
RTVSPost2010PropOp34
 70
     1
102
RTVSPost2010Prop35
280
     0
102
RTVSPost2010PropOp35
 70
     1
102
RTVSPost2010Prop36
280
     0
102
RTVSPost2010PropOp36
 70
     1
102
RTVSPost2010Prop37
 90
       50
102
RTVSPost2010PropOp37
 70
     1
102
RTVSPost2010Prop38
140
0.0
102
RTVSPost2010PropOp38
 70
     1
102
RTVSPost2010Prop39
140
1.0
102
RTVSPost2010PropOp39
 70
     1
102
RTVSPost2010Prop40
 90
        0
102
RTVSPost2010PropOp40
 70
     1
102
RTVSPost2010Prop41ColorIndex
 90
       18
102
RTVSPost2010Prop41ColorRGB
 90
        0
102
RTVSPost2010PropOp41
 70
     1
102
RTVSPost2010Prop42
 90
       50
102
RTVSPost2010PropOp42
 70
     1
102
RTVSPost2010Prop43
 90
        3
102
RTVSPost2010PropOp43
 70
     1
102
RTVSPost2010Prop44ColorIndex
 90
        5
102
RTVSPost2010Prop44ColorRGB
 90
      255
102
RTVSPost2010PropOp44
 70
     1
102
RTVSPost2010Prop45
280
     0
102
RTVSPost2010PropOp45
 70
     1
102
RTVSPost2010Prop46
 90
       50
102
RTVSPost2010PropOp46
 70
     1
102
RTVSPost2010Prop47
 90
       50
102
RTVSPost2010PropOp47
 70
     1
102
RTVSPost2010Prop48
 90
       50
102
RTVSPost2010PropOp48
 70
     1
102
RTVSPost2010Prop49
280
     0
102
RTVSPost2010PropOp49
 70
     1
102
RTVSPost2010Prop50
 90
       50
102
RTVSPost2010PropOp50
 70
     1
102
RTVSPost2010Prop51ColorIndex
 90
      256
102
RTVSPost2010Prop51ColorRGB
 90
-16777216
102
RTVSPost2010PropOp51
 70
     0
102
RTVSPost2010Prop52
140
1.0
102
RTVSPost2010PropOp52
 70
     0
102
RTVSPost2010Prop53
 90
        2
102
RTVSPost2010PropOp53
 70
     1
102
RTVSPost2010Prop54
  1
strokes_ogs.tif
102
RTVSPost2010PropOp54
 70
     1
102
RTVSPost2010Prop55
280
     0
102
RTVSPost2010PropOp55
 70
     1
102
RTVSPost2010Prop56
140
1.0
102
RTVSPost2010PropOp56
 70
     1
102
RTVSPost2010Prop57
140
1.0
102
RTVSPost2010PropOp57
 70
     1
  0
ENDSEC
  0
EOF
